img image001 image001 image001 image001 image001 image001 image001 image001 image001 image001 image001 image001 image001 image001 image001

Planets Sun Sun Sun
Статистика раздачи
Автор: Nickolas3434 | Размер: 3.67 ГБ | Добавлен: 03 июл 2014
Раздают: 624    Качают: 359
Скачать торрент
Скачать торрент
Описание торрента

СообщениеДобавлено: 03 июл 2014 



#77
Информация о фильме
    Русское название: Рио 2
    Оригинальное название: Rio 2
    Год выхода: 2014
    Жанр: Комедия, приключения
    Режиссер: Карлос Салдана
    Выпущено: США
    Продолжительность: 01:41:11
    Перевод: Дублированный[iTunes]
    Роли озвучивали: Энн Хэтэуэй, Джесси Айзенберг, Джейк Т. Остин, Карлиньюс Браун, Кристин Ченоуэт, Джемейн Клемент, Джим Конрой, Рэйчел Кроу, Бернардо де Паула, Нола Донкин


Сюжет фильма
    Голубчик, Жемчужинка и их трое детей живут счастливой жизнью в волшебном городе Рио-де-Жанейро. Когда Жемчужинка решает, что их детям нужно научиться жить как настоящим птицам, она настаивает на авантюрной поездке в дебри реки Амазонки. Там, пытаясь вписаться в новое окружение, Голубчик начинает беспокоиться, что может потерять Жемчужинку и детей, идущих на зов дикой природы.


Файл
    Качество: BDRip 720p (исходник Blu-ray Disc Remux)
    Видео: 1280x536, 4261 Кбит/сек, 59.940 кадр/сек, AVC, x264, High@L4.1, 2.40:1, 0.104 Бит/[Пиксели*Кадры]
    Аудио 1: AC-3, 384 Кбит/сек, 6 канала(ов), 48,0 КГц - Дублированный [iTunes] / Русский
    Аудио 2: AC-3, 448 Кбит/сек, 6 канала(ов), 48,0 КГц - Оригинал / Английский
    Субтитры: Русские | Полные, Английские | Полные
    Форсированные субтитры: Нет
    Чаптеры (Главы): Есть
Зарубежные фильмы в 60 FPS



Автор Рипа: Сообщество:



Format : Matroska
Format version : Version 2
File size : 3.67 GiB
Duration : 1h 41mn
Overall bit rate : 5 196 Kbps
Movie name : Рио 2.(2014).BDRip.720p.[envy].[60fps]
Encoded date : UTC 2014-07-03 04:10:24
Writing application : mkvmerge v5.8.0 ('No Sleep / Pillow') built on Sep 2 2012 15:37:04
Writing library : libebml v1.2.3 + libmatroska v1.3.0

Video
ID : 1
Format : AVC
Format/Info : Advanced Video Codec
Format profile : High@L4.1
Format settings, CABAC : Yes
Format settings, ReFrames : 9 frames
Codec ID : V_MPEG4/ISO/AVC
Duration : 1h 41mn
Bit rate : 4 261 Kbps
Width : 1 280 pixels
Height : 536 pixels
Display aspect ratio : 2.40:1
Frame rate mode : Constant
Frame rate : 59.880 fps
Original frame rate : 59.940 fps
Color space : YUV
Chroma subsampling : 4:2:0
Bit depth : 8 bits
Scan type : Progressive
Bits/(Pixel*Frame) : 0.104
Stream size : 3.01 GiB (82%)
Title : Рио 2.(2014).BDRip.720p.[envy].[60fps]
Writing library : x264 core 130 r2273 b3065e6
Encoding settings : cabac=1 / ref=9 / deblock=1:-1:-1 / analyse=0x3:0x133 / me=umh / subme=10 / psy=1 / psy_rd=1.00:0.10 / mixed_ref=1 / me_range=32 / chroma_me=1 / trellis=2 / 8x8dct=1 / cqm=0 / deadzone=21,11 / fast_pskip=0 / chroma_qp_offset=-3 / threads=12 / lookahead_threads=1 / sliced_threads=0 / nr=0 / decimate=1 / interlaced=0 / bluray_compat=0 / constrained_intra=0 / bframes=6 / b_pyramid=2 / b_adapt=2 / b_bias=0 / direct=1 / weightb=1 / open_gop=0 / weightp=2 / keyint=250 / keyint_min=25 / scenecut=40 / intra_refresh=0 / rc=crf / mbtree=0 / crf=19.0 / qcomp=0.60 / qpmin=0 / qpmax=69 / qpstep=4 / ip_ratio=1.40 / pb_ratio=1.30 / aq=2:1.00
Language : English
Default : Yes
Forced : No

Audio #1
ID : 2
Format : AC-3
Format/Info : Audio Coding 3
Mode extension : CM (complete main)
Format settings, Endianness : Big
Codec ID : A_AC3
Duration : 1h 41mn
Bit rate mode : Constant
Bit rate : 384 Kbps
Channel count : 6 channels
Channel positions : Front: L C R, Side: L R, LFE
Sampling rate : 48.0 KHz
Bit depth : 16 bits
Compression mode : Lossy
Stream size : 278 MiB (7%)
Title : Dub (iTunes)
Language : Russian
Default : Yes
Forced : No

Audio #2
ID : 3
Format : AC-3
Format/Info : Audio Coding 3
Mode extension : CM (complete main)
Format settings, Endianness : Big
Codec ID : A_AC3
Duration : 1h 41mn
Bit rate mode : Constant
Bit rate : 448 Kbps
Channel count : 6 channels
Channel positions : Front: L C R, Side: L R, LFE
Sampling rate : 48.0 KHz
Bit depth : 16 bits
Compression mode : Lossy
Stream size : 324 MiB (9%)
Title : Eng
Language : English
Default : No
Forced : No

Text #1
ID : 4
Format : UTF-8
Codec ID : S_TEXT/UTF8
Codec ID/Info : UTF-8 Plain Text
Title : full
Language : Russian
Default : No
Forced : No

Text #2
ID : 5
Format : UTF-8
Codec ID : S_TEXT/UTF8
Codec ID/Info : UTF-8 Plain Text
Title : full
Language : English
Default : No
Forced : No

Menu
00:00:00.000 : :Chapter 01
00:03:10.815 : :Chapter 03
00:05:14.313 : :Chapter 05
00:08:49.362 : :Chapter 07
00:13:02.239 : :Chapter 09
00:17:36.305 : :Chapter 11
00:19:19.408 : :Chapter 13
00:22:30.348 : :Chapter 15
00:26:48.690 : :Chapter 17
00:29:00.155 : :Chapter 19
00:30:59.691 : :Chapter 21
00:33:46.566 : :Chapter 23
00:36:34.191 : :Chapter 25
00:39:20.232 : :Chapter 27
00:41:32.656 : :Chapter 29
00:45:05.119 : :Chapter 31
00:47:23.090 : :Chapter 33
00:49:58.161 : :Chapter 35
00:52:05.455 : :Chapter 37
00:55:38.918 : :Chapter 39
00:58:10.904 : :Chapter 41
01:02:11.394 : :Chapter 43
01:04:38.082 : :Chapter 45
01:07:03.936 : :Chapter 47
01:09:18.195 : :Chapter 49
01:10:21.342 : :Chapter 51
01:15:17.763 : :Chapter 53
01:17:00.157 : :Chapter 55
01:21:41.855 : :Chapter 57
01:25:24.619 : :Chapter 59
01:29:42.710 : :Chapter 61
01:32:27.959 : :Chapter 63
01:41:10.981 : :Chapter 64


#77
#77

Прежде чем скачивать фильм полностью, скачайте "сэмпл", и проверьте будет ли воспроизводится видео на вашем устройстве!

Q: Присутствуют ли артефакты на изображении?
A: Да, есть, и будут, какие настройки кодека не вписывай они будут постоянно! хоть они и обработаны фильтром "Sharp", но они выглядят вполне смотрибельно.
+ > Артефактов стало меньше! Переписал скрипт кодирования.

Q: У меня не запускается видео на компьютере.
A: Обновите кодеки. (попробуйте другие видео проигрыватели)

Q: Что нужно для воспроизведения данного видео.
A: Что рекомендуется для воспроизведения:
Процессор: рекомендую 4х ядерный
Видео карта: минимум 512Мб. И желательно включить обработку изображения с помощью видео карты. (Деинтерлейсинг, подавление блочности и т.д.)
ОЗУ: 2Гб

Проигрыватели.
MPC-HC (Media Player Classic - Home Cinema)
The KMPlayer (Korean Multimedia Player) (оптимальный вариант)
Mirillis Splash PRO (Если что то проигрыватель сам может преобразовывать видео вплоть до частоты кадров монитора. Или тех же 60fps.)

^Прежде чем отписывать комментарии по качеству, прочитайте спойлер!

Внимание: Данные фильмы делаются (кому нужно знает где) с обязательным указанием ||60FPS|| !



   Похожие торренты   Торрент   Размер 
В этой теме нет новых непрочитанных сообщений. Детка / Laggies (2014) BDRip 720p от NNNB | iTunes

106 | 10

3.23 ГБ

В этой теме нет новых непрочитанных сообщений. Ярость / Fury (2014) BDRip 720p от NNNB | iTunes | D,A

426 | 54

5.48 ГБ

В этой теме нет новых непрочитанных сообщений. Серена / Serena (2014) BDRip 720p от NNNB | iTunes

197 | 15

3.2 ГБ

В этой теме нет новых непрочитанных сообщений. Судья / The Judge (2014) BDRip 720p от NNNB | iTunes

1501 | 191

6.93 ГБ

В этой теме нет новых непрочитанных сообщений. Дракула / Dracula Untold (2014) BDRip 720p от NNNB | Itunes

24 | 4

3.72 ГБ

В этой теме нет новых непрочитанных сообщений. Песнь моря / Song of the Sea (2014) BDRip 720p от NNNB | 60 fps | iTunes

285 | 27

3.52 ГБ

В этой теме нет новых непрочитанных сообщений. Грань будущего / Edge of Tomorrow (2014) BDRip 720p от NNNB | 60 fps | iTunes

546 | 25

4.72 ГБ




Вы не можете начинать темы
Вы не можете отвечать на сообщения
Вы не можете редактировать свои сообщения
Вы не можете удалять свои сообщения
Вы не можете добавлять вложения

Перейти:  
Для Мосгорсуда, Роскомнадзора и рекламодателей: mosgorsud-torrent[собачка]yandex.ru
 Вход
ppkBB3cker v.2 © 2008-2014 @ PPK
[ Time : 0.051s | 15 Queries | GZIP : Off ]

Торрент трекер RUTOR.IN, Не можете зайти на rutor.org? Какой новый адрес рутор? Какое зеркало рутор? Не работает rutor.org и зеркала? Тогда наш торрент специально для вас. Rutor.in неофициальное зеркало rutor. В случае если у Вас заблокирован rutor или вдруг Вы не можете на него зайти, то Вы без труда сможете скачать бесплатно и без рекламы последние новинки кино, игр, сериалов и прочего у нас, на Rutor.in. Не нужно использовать прокси, чтобы зайти на рутор, достаточно воспользоваться нашим ресурсом. Все новые фильмы, игры, сериалы, книги и музыка за 2013 и 2014 годы через торрент бесплатно. Скачивайте фильмы в хорошем качестве, игры для пк, xbox, playstation без регистрации. У нас вы найдете новые Зарубежные сериалы и Русские сериалы 2013, 2014, 2015 годов. Оставайтесь с нами, качайте любимые фильмы, игры, сериалы, книги и музыку.