img image001 image001 image001 image001 image001 image001 image001 image001 image001 image001 image001 image001 image001 image001 image001

Planets Sun Sun Sun
Статистика раздачи
Автор: Nickolas3434 | Размер: 2.18 ГБ | Добавлен: 05 июл 2014
Раздают: 375    Качают: 119
Скачать торрент
Скачать торрент
Описание торрента

СообщениеДобавлено: 05 июл 2014 

Название: Рио 2
Оригинальное название: Rio 2
Год выхода: 2014
Жанр: Мультфильм, комедия, приключения, семейный
Режиссер: Карлос Салдана
Роли озвучивали: Энн Хэтэуэй, Лесли Манн, Джейми Фокс, Джесси Айзенберг, Родриго Санторо, Энди Гарсиа, Трэйси Морган, Уилл Ай Эм, Джемейн Клемент, Кристин Ченоуэт

О фильме:
Голубчик, Жемчужинка и их трое детей живут счастливой жизнью в волшебном городе Рио-де-Жанейро. Когда Жемчужинка решает, что их детям нужно научиться жить как настоящим птицам, она настаивает на авантюрной поездке в дебри реки Амазонки. Там, пытаясь вписаться в новое окружение, Голубчик начинает беспокоиться, что может потерять Жемчужинку и детей, идущих на зов дикой природы.



Страна: США
Студия: 20th Century Fox Animation, Blue Sky Studios
Продолжительность: 01:41:11
Перевод: Дублированный (Лицензия)
Субтитры: Русские, английские

Кодек: H.264
Формат: MKV
Качество: BDRip-AVC (Blu-Ray Remux (1080р))
Видео: MPEG-4 AVC, 2182 Кбит/с, 1024х424
Звук: Русский, английский (АС3, 6 ch, 448 Кбит/с)

Сохранены чаптеры как на Blu-Ray



Дата Релиза: 04.07.2014

Video
ID : 1
Format : AVC
Format/Info : Advanced Video Codec
Format profile : High@L4.1
Format settings, CABAC : Yes
Format settings, ReFrames : 8 frames
Codec ID : V_MPEG4/ISO/AVC
Duration : 1h 41mn
Bit rate : 2 182 Kbps
Width : 1 024 pixels
Height : 424 pixels
Display aspect ratio : 2.40:1
Frame rate mode : Constant
Frame rate : 23.976 fps
Color space : YUV
Chroma subsampling : 4:2:0
Bit depth : 8 bits
Scan type : Progressive
Bits/(Pixel*Frame) : 0.210
Stream size : 1.50 GiB (69%)
Writing library : x264 core 125 r2200 999b753
Encoding settings : cabac=1 / ref=8 / deblock=1:-3:-3 / analyse=0x3:0x113 / me=umh / subme=10 / psy=1 / psy_rd=1.00:0.00 / mixed_ref=1 / me_range=32 / chroma_me=1 / trellis=2 / 8x8dct=1 / cqm=0 / deadzone=21,11 / fast_pskip=0 / chroma_qp_offset=-2 / threads=6 / lookahead_threads=1 / sliced_threads=0 / nr=0 / decimate=0 / interlaced=0 / bluray_compat=0 / constrained_intra=0 / bframes=8 / b_pyramid=2 / b_adapt=2 / b_bias=0 / direct=3 / weightb=1 / open_gop=0 / weightp=2 / keyint=240 / keyint_min=23 / scenecut=40 / intra_refresh=0 / rc=2pass / mbtree=0 / bitrate=2182 / ratetol=1.0 / qcomp=0.60 / qpmin=0 / qpmax=69 / qpstep=4 / cplxblur=20.0 / qblur=0.5 / ip_ratio=1.40 / pb_ratio=1.30 / aq=1:1.10
Language : English
Default : Yes
Forced : No

Audio #1
ID : 2
Format : AC-3
Format/Info : Audio Coding 3
Mode extension : CM (complete main)
Format settings, Endianness : Big
Codec ID : A_AC3
Duration : 1h 41mn
Bit rate mode : Constant
Bit rate : 448 Kbps
Channel(s) : 6 channels
Channel positions : Front: L C R, Side: L R, LFE
Sampling rate : 48.0 KHz
Bit depth : 16 bits
Compression mode : Lossy
Stream size : 324 MiB (15%)
Title : Дублированный (Лицензия)
Language : Russian
Default : Yes
Forced : No

Audio #2
ID : 3
Format : AC-3
Format/Info : Audio Coding 3
Mode extension : CM (complete main)
Format settings, Endianness : Big
Codec ID : A_AC3
Duration : 1h 41mn
Bit rate mode : Constant
Bit rate : 448 Kbps
Channel(s) : 6 channels
Channel positions : Front: L C R, Side: L R, LFE
Sampling rate : 48.0 KHz
Bit depth : 16 bits
Compression mode : Lossy
Stream size : 324 MiB (15%)
Title : Оригинал
Language : English
Default : No
Forced : No

Text #1
ID : 4
Format : UTF-8
Codec ID : S_TEXT/UTF8
Codec ID/Info : UTF-8 Plain Text
Title : Русские
Language : Russian
Default : Yes
Forced : No

Text #2
ID : 5
Format : UTF-8
Codec ID : S_TEXT/UTF8
Codec ID/Info : UTF-8 Plain Text
Title : Английские
Language : English
Default : No
Forced : No

Menu
00:00:00.000 : en:Chapter 01
00:03:10.815 : en:Chapter 03
00:05:14.313 : en:Chapter 05
00:08:49.362 : en:Chapter 07
00:13:02.239 : en:Chapter 09
00:17:36.305 : en:Chapter 11
00:19:19.408 : en:Chapter 13
00:22:30.348 : en:Chapter 15
00:26:48.690 : en:Chapter 17
00:29:00.155 : en:Chapter 19
00:30:59.691 : en:Chapter 21
00:33:46.566 : en:Chapter 23
00:36:34.191 : en:Chapter 25
00:39:20.232 : en:Chapter 27
00:41:32.656 : en:Chapter 29
00:45:05.119 : en:Chapter 31
00:47:23.090 : en:Chapter 33
00:49:58.161 : en:Chapter 35
00:52:05.455 : en:Chapter 37
00:55:38.918 : en:Chapter 39
00:58:10.904 : en:Chapter 41
01:02:11.394 : en:Chapter 43
01:04:38.082 : en:Chapter 45
01:07:03.936 : en:Chapter 47
01:09:18.195 : en:Chapter 49
01:10:21.342 : en:Chapter 51
01:15:17.763 : en:Chapter 53
01:17:00.157 : en:Chapter 55
01:21:41.855 : en:Chapter 57
01:25:24.619 : en:Chapter 59
01:29:42.710 : en:Chapter 61
01:32:27.959 : en:Chapter 63
01:41:10.981 : en:Chapter 64


x264 [info]: frame I:1365 Avg QP:16.36 size: 82594
x264 [info]: frame P:38711 Avg QP:19.37 size: 21168
x264 [info]: frame B:105489 Avg QP:21.91 size: 6861








   Похожие торренты   Торрент   Размер 
В этой теме нет новых непрочитанных сообщений. Новогодний концерт Венского филармонического оркестра 2014 / Neujahrskonzert 2014 (2014) BDRip 1080p от HDLine

52 | 47

9.65 ГБ

В этой теме нет новых непрочитанных сообщений. Новогодний концерт Венского филармонического оркестра 2014 / Neujahrskonzert der Wiener Philharmoniker 2014 (2014) BDRip от ivandubskoj

56 | 7

2.12 ГБ

В этой теме нет новых непрочитанных сообщений. Прежде чем я усну / Before I Go to Sleep BDRip (2014) BDRip 720p от HELLYWOOD | Лицензия

421 | 22

3.37 ГБ

В этой теме нет новых непрочитанных сообщений. Перевёрнутая Патэма / Patema Inverted / Sakasama no Patema (2014) BDRip 720p, BDRip 1080p | AniRigin

142 | 81

7.2 ГБ

В этой теме нет новых непрочитанных сообщений. 71 / '71 (2014) BDRip-AVC | A

286 | 17

1.46 ГБ

В этой теме нет новых непрочитанных сообщений. Рио 2 / Rio 2 (2014) BDRip | D

224 | 388

2 ГБ

В этой теме нет новых непрочитанных сообщений. Рио 2 / Rio 2 (2014) BDRip | D

395 | 149

2.05 ГБ




Вы не можете начинать темы
Вы не можете отвечать на сообщения
Вы не можете редактировать свои сообщения
Вы не можете удалять свои сообщения
Вы не можете добавлять вложения

Перейти:  
Для Мосгорсуда, Роскомнадзора и рекламодателей: mosgorsud-torrent[собачка]yandex.ru
 Вход
ppkBB3cker v.2 © 2008-2014 @ PPK
[ Time : 0.054s | 15 Queries | GZIP : Off ]

Торрент трекер RUTOR.IN, Не можете зайти на rutor.org? Какой новый адрес рутор? Какое зеркало рутор? Не работает rutor.org и зеркала? Тогда наш торрент специально для вас. Rutor.in неофициальное зеркало rutor. В случае если у Вас заблокирован rutor или вдруг Вы не можете на него зайти, то Вы без труда сможете скачать бесплатно и без рекламы последние новинки кино, игр, сериалов и прочего у нас, на Rutor.in. Не нужно использовать прокси, чтобы зайти на рутор, достаточно воспользоваться нашим ресурсом. Все новые фильмы, игры, сериалы, книги и музыка за 2013 и 2014 годы через торрент бесплатно. Скачивайте фильмы в хорошем качестве, игры для пк, xbox, playstation без регистрации. У нас вы найдете новые Зарубежные сериалы и Русские сериалы 2013, 2014, 2015 годов. Оставайтесь с нами, качайте любимые фильмы, игры, сериалы, книги и музыку.