img image001 image001 image001 image001 image001 image001 image001 image001 image001 image001 image001 image001 image001 image001 image001

Planets Sun Sun Sun
Статистика раздачи
Автор: Nickolas3434 | Размер: 4.01 ГБ | Добавлен: 05 июл 2014
Раздают: 1419    Качают: 496
Скачать торрент
Скачать торрент
Описание торрента

СообщениеДобавлено: 05 июл 2014 

Информация о мультфильме
Название: Рио 2
Оригинальное название: Rio 2
Год выхода: 2014
Жанр: мультфильм, комедия, приключения, семейный
Режиссер: Карлос Салдана



Озвучка: Энн Хэтэуэй, Джесси Айзенберг, Джейк Т. Остин, Карлиньюс Браун, Кристин Ченоуэт, Джемейн Клемент, Джим Конрой, Рэйчел Кроу, Бернардо де Паула

О МУЛЬТФИЛЬМЕ
Голубчик, Жемчужинка и их трое детей живут счастливой жизнью в волшебном городе Рио-де-Жанейро. Когда Жемчужинка решает, что их детям нужно научиться жить как настоящим птицам, она настаивает на авантюрной поездке в дебри реки Амазонки. Там, пытаясь вписаться в новое окружение, Голубчик начинает беспокоиться, что может потерять Жемчужинку и детей, идущих на зов дикой природы.



Страна: США
Производство: 20th Century Fox Animation, Blue Sky Studios
Продолжительность: 01:41:11
Перевод: Профессиональный (дублированный) [Лицензия]

Файл
Качество: BDRip 720p
Видео: 1280x534 (2.40:1) at 23.976 fps, AVC at 3941 kbps avg, 0.240 bit/pixel
Аудио 1: Русский / АС3, 6 ch, 640 Кбит/с / DUB
Аудио 2: Украинский / АС3, 6 ch, 448 Кбит/с / DUB
Аудио 3: Английский / АС3, 6 ch, 640 Кбит/с / Original
Субтитры: Русские (форс, полные), Украинские, Английские
Дополнительно: Сохранены оригинальные чаптеры как на Blu-Ray






x264 [info]: frame I:1320 Avg QP:15.10 size:122432
x264 [info]: frame P:43164 Avg QP:18.01 size: 35741
x264 [info]: frame B:101080 Avg QP:20.27 size: 12723

-------------------------

General
Unique ID : 252347587997732190899156942257733981493 (0xBDD860AB2BF32B0A8EF80B0195675535)
Complete name : H:Rio.2.2014.BD.720.Hot-Film.mkv
Format : Matroska
Format version : Version 2
File size : 4.01 GiB
Duration : 01:41:11
Overall bit rate : 5 672 Kbps
Encoded date : UTC 2014-07-04 16:29:52
Writing application : mkvmerge v5.8.0 ('No Sleep / Pillow') built on Sep 2 2012 15:37:04
Writing library : libebml v1.2.3 + libmatroska v1.3.0
Attachment : Yes

Video
ID : 1
Format : AVC
Format/Info : Advanced Video Codec
Format profile : High@L4.1
Format settings, CABAC : Yes
Format settings, ReFrames : 9 frames
Codec ID : V_MPEG4/ISO/AVC
Duration : 1h 41mn
Bit rate : 3 941 Kbps
Width : 1 280 pixels
Height : 534 pixels
Display aspect ratio : 2.40:1
Frame rate mode : Constant
Frame rate : 23.976 fps
Color space : YUV
Chroma subsampling : 4:2:0
Bit depth : 8 bits
Scan type : Progressive
Bits/(Pixel*Frame) : 0.240
Stream size : 2.71 GiB (68%)
Writing library : x264 core 138 r2358 9e941d1
Encoding settings : cabac=1 / ref=9 / deblock=1:-3:-3 / analyse=0x3:0x133 / me=umh / subme=11 / psy=1 / psy_rd=1.00:0.10 / mixed_ref=1 / me_range=32 / chroma_me=1 / trellis=2 / 8x8dct=1 / cqm=0 / deadzone=21,11 / fast_pskip=0 / chroma_qp_offset=-3 / threads=12 / lookahead_threads=2 / sliced_threads=0 / nr=0 / decimate=0 / interlaced=0 / bluray_compat=0 / constrained_intra=0 / bframes=8 / b_pyramid=2 / b_adapt=2 / b_bias=0 / direct=3 / weightb=1 / open_gop=0 / weightp=2 / keyint=240 / keyint_min=23 / scenecut=40 / intra_refresh=0 / rc_lookahead=40 / rc=2pass / mbtree=0 / bitrate=3941 / ratetol=1.0 / qcomp=0.60 / qpmin=0 / qpmax=69 / qpstep=4 / cplxblur=20.0 / qblur=0.5 / vbv_maxrate=50000 / vbv_bufsize=62500 / nal_hrd=none / ip_ratio=1.40 / pb_ratio=1.30 / aq=1:0.80
Language : English
Default : Yes
Forced : No

Audio #1
ID : 2
Format : AC-3
Format/Info : Audio Coding 3
Mode extension : CM (complete main)
Format settings, Endianness : Big
Codec ID : A_AC3
Duration : 1h 41mn
Bit rate mode : Constant
Bit rate : 640 Kbps
Channel(s) : 6 channels
Channel positions : Front: L C R, Side: L R, LFE
Sampling rate : 48.0 KHz
Bit depth : 16 bits
Compression mode : Lossy
Stream size : 463 MiB (11%)
Title : DUB
Language : Russian
Default : Yes
Forced : No

Audio #2
ID : 3
Format : AC-3
Format/Info : Audio Coding 3
Mode extension : CM (complete main)
Format settings, Endianness : Big
Codec ID : A_AC3
Duration : 1h 41mn
Bit rate mode : Constant
Bit rate : 448 Kbps
Channel(s) : 6 channels
Channel positions : Front: L C R, Side: L R, LFE
Sampling rate : 48.0 KHz
Bit depth : 16 bits
Compression mode : Lossy
Stream size : 324 MiB (8%)
Title : DUB
Language : Ukrainian
Default : No
Forced : No

Audio #3
ID : 4
Format : AC-3
Format/Info : Audio Coding 3
Mode extension : CM (complete main)
Format settings, Endianness : Big
Codec ID : A_AC3
Duration : 1h 41mn
Bit rate mode : Constant
Bit rate : 640 Kbps
Channel(s) : 6 channels
Channel positions : Front: L C R, Side: L R, LFE
Sampling rate : 48.0 KHz
Bit depth : 16 bits
Compression mode : Lossy
Stream size : 463 MiB (11%)
Title : Original
Language : English
Default : No
Forced : No

Text #1
ID : 5
Format : UTF-8
Codec ID : S_TEXT/UTF8
Codec ID/Info : UTF-8 Plain Text
Title : Forced
Language : Russian
Default : Yes
Forced : Yes

Text #2
ID : 6
Format : UTF-8
Codec ID : S_TEXT/UTF8
Codec ID/Info : UTF-8 Plain Text
Title : Full
Language : Russian
Default : No
Forced : No

Text #3
ID : 7
Format : UTF-8
Codec ID : S_TEXT/UTF8
Codec ID/Info : UTF-8 Plain Text
Title : Full
Language : Ukrainian
Default : No
Forced : No

Text #4
ID : 8
Format : UTF-8
Codec ID : S_TEXT/UTF8
Codec ID/Info : UTF-8 Plain Text
Title : Full
Language : English
Default : No
Forced : No

Text #5
ID : 9
Format : UTF-8
Codec ID : S_TEXT/UTF8
Codec ID/Info : UTF-8 Plain Text
Title : Full (Colored)
Language : English
Default : No
Forced : No

Menu
00:00:00.000 : :Chapter 01
00:03:10.690 : :Chapter 02
00:05:14.314 : :Chapter 03
00:08:49.362 : :Chapter 04
00:13:02.239 : :Chapter 05
00:17:36.305 : :Chapter 06
00:19:19.408 : :Chapter 07
00:22:30.349 : :Chapter 08
00:26:48.690 : :Chapter 09
00:29:00.155 : :Chapter 10
00:30:59.691 : :Chapter 11
00:33:46.566 : :Chapter 12
00:36:34.192 : :Chapter 13
00:39:20.232 : :Chapter 14
00:41:32.656 : :Chapter 15
00:45:05.119 : :Chapter 16
00:47:23.090 : :Chapter 17
00:49:58.161 : :Chapter 18
00:52:05.455 : :Chapter 19
00:55:38.918 : :Chapter 20
00:58:10.904 : :Chapter 21
01:02:11.394 : :Chapter 22
01:04:38.082 : :Chapter 23
01:07:03.936 : :Chapter 24
01:09:18.195 : :Chapter 25
01:10:21.342 : :Chapter 26
01:15:17.763 : :Chapter 27
01:17:00.157 : :Chapter 28
01:21:41.855 : :Chapter 29
01:25:24.619 : :Chapter 30
01:29:42.710 : :Chapter 31
01:32:27.959 : :Chapter 32

Релиз от:



   Похожие торренты   Торрент   Размер 
В этой теме нет новых непрочитанных сообщений. Топ-5 / Top Five (2014) BDRip 720p от Hot-Film | Лицензия

554 | 74

3.58 ГБ

В этой теме нет новых непрочитанных сообщений. Седьмой сын / Seventh Son (2014) BDRip 720p от Hot-Film | Лицензия

766 | 33

3.06 ГБ

В этой теме нет новых непрочитанных сообщений. Дивергент / Divergent (2014) BDRip 720p от Hot-Film | US Transfer | Лицензия

2403 | 194

3.96 ГБ

В этой теме нет новых непрочитанных сообщений. Человек ноября / The November Man (2014) BDRip 720p от Hot-Film | Лицензия

653 | 102

4.15 ГБ

В этой теме нет новых непрочитанных сообщений. Совместная поездка / Ride Along (2014) BDRip 720p от Hot-Film | Лицензия

2701 | 431

2.46 ГБ

В этой теме нет новых непрочитанных сообщений. Долгое падение / A Long Way Down (2014) BDRip 720p от Hot-Film | Лицензия

2095 | 307

2.78 ГБ

В этой теме нет новых непрочитанных сообщений. Домашнее видео / Sex Tape (2014) BDRip 720p от Hot-Film | Лицензия

746 | 63

2.43 ГБ




Вы не можете начинать темы
Вы не можете отвечать на сообщения
Вы не можете редактировать свои сообщения
Вы не можете удалять свои сообщения
Вы не можете добавлять вложения

Перейти:  
Для Мосгорсуда, Роскомнадзора и рекламодателей: mosgorsud-torrent[собачка]yandex.ru
 Вход
ppkBB3cker v.2 © 2008-2014 @ PPK
[ Time : 0.037s | 16 Queries | GZIP : Off ]

cron