img image001 image001 image001 image001 image001 image001 image001 image001 image001 image001 image001 image001 image001 image001 image001

Planets Sun Sun Sun
Статистика раздачи
Автор: Nickolas3434 | Размер: 11.52 ГБ | Добавлен: 05 июл 2014
Раздают: 245    Качают: 214
Скачать торрент
Скачать торрент
Описание торрента

СообщениеДобавлено: 05 июл 2014 

Рио / Rio (2011)



Информация о фильме
Название: Рио
Оригинальное название: Rio
Год выхода: 2011
Жанр: мультфильм, мюзикл, комедия, приключения, семейный
Режиссер: Карлос Салдана
В ролях: Джесси Айзенберг, Энн Хэтэуэй, Джейми Фокс, Уилл Ай Эм, Родриго Санторо, Карен Дишер, Карлос Понсе, Джордж Лопес, Джемейн Клемент, Джейсон Фриккионе

О фильме: Попугай-зануда оставляет свою уютную сытую жизнь в клетке и из Миннесоты отправляется в Рио-де-Жанейро, город грез всех и каждого. Неминуемые встречи, препятствия, опасности и любовь к последней представительнице его рода заставляют нашего героя по-другому посмотреть на мир и из скучного домоседа превратиться в милого симпатягу, узнавшего цену дружбе и смелости.



Выпущено: Twentieth Century Fox Animation
Продолжительность: 01:35:58
Перевод: Дублированный (лицензия)

Файл
Кодек: x264
Качество: BDRip (источник: Blu-ray Disc)
Видео: 1920x800 (2,40:1), 23.976 fps, 7700 kbps
Аудио #1: AC-3, 6 ch, 448 kbps (Rus)
Аудио #2: AC-3, 6 ch, 448 kbps (Eng)
Субтитры: Русские (форс,полные), Английские

Скриншоты

Общее
Уникальный идентификатор : 173410762745303555744385980255359041484 (0x8275B2B463A3F23FBE0632AEA17D7FCC)
Полное имя : Rio.2011.BDRip.1080p.Rus.Eng.mkv
Формат : Matroska
Версия формата : Version 2
Размер файла : 5,76 Гбайт
Продолжительность : 1 ч. 35 м.
Общий поток : 8593 Кбит/сек
Название фильма : Рио / Rio (2011)
Дата кодирования : UTC 2014-07-04 18:08:09
Программа кодирования : mkvmerge v5.8.0 ('No Sleep / Pillow') built on Sep 2 2012 15:37:04
Библиотека кодирования : libebml v1.2.3 + libmatroska v1.3.0

Видео
Идентификатор : 1
Формат : AVC
Формат/Информация : Advanced Video Codec
Профиль формата : High@L4.1
Параметр CABAC формата : Да
Параметр ReFrames формата : 5 кадров
Идентификатор кодека : V_MPEG4/ISO/AVC
Продолжительность : 1 ч. 35 м.
Битрейт : 7699 Кбит/сек
Ширина : 1920 пикселей
Высота : 800 пикселей
Соотношение сторон : 2,40:1
Режим частоты кадров : Постоянный
Частота кадров : 23,976 кадра/сек
Цветовое пространство : YUV
Субдискретизация насыщенности : 4:2:0
Битовая глубина : 8 бит
Тип развёртки : Прогрессивная
Бит/(Пиксели*Кадры) : 0.209
Размер потока : 5,04 Гбайт (88%)
Заголовок : Release by AlexKa
Библиотека кодирования : x264 core 142 r2431 ac76440
Настройки программы : cabac=1 / ref=5 / deblock=1:0:0 / analyse=0x3:0x133 / me=umh / subme=11 / psy=1 / psy_rd=1.00:0.00 / mixed_ref=1 / me_range=32 / chroma_me=1 / trellis=2 / 8x8dct=1 / cqm=0 / deadzone=21,11 / fast_pskip=0 / chroma_qp_offset=-2 / threads=12 / lookahead_threads=1 / sliced_threads=0 / nr=0 / decimate=1 / interlaced=0 / bluray_compat=0 / constrained_intra=0 / bframes=6 / b_pyramid=2 / b_adapt=2 / b_bias=0 / direct=3 / weightb=1 / open_gop=0 / weightp=2 / keyint=240 / keyint_min=23 / scenecut=40 / intra_refresh=0 / rc=2pass / mbtree=0 / bitrate=7699 / ratetol=1.0 / qcomp=0.60 / qpmin=0 / qpmax=69 / qpstep=4 / cplxblur=20.0 / qblur=0.5 / ip_ratio=1.40 / pb_ratio=1.30 / aq=1:1.00
Язык : English

Аудио #1
Идентификатор : 2
Формат : AC-3
Формат/Информация : Audio Coding 3
Расширение режима : CM (complete main)
Параметр Endianness формата : Big
Идентификатор кодека : A_AC3
Продолжительность : 1 ч. 35 м.
Вид битрейта : Постоянный
Битрейт : 448 Кбит/сек
Каналы : 6 каналов
Расположение каналов : Front: L C R, Side: L R, LFE
Частота : 48,0 КГц
Битовая глубина : 16 бит
Метод сжатия : С потерями
Размер потока : 307 Мбайт (5%)
Заголовок : Rus
Язык : Russian

Аудио #2
Идентификатор : 3
Формат : AC-3
Формат/Информация : Audio Coding 3
Расширение режима : CM (complete main)
Параметр Endianness формата : Big
Идентификатор кодека : A_AC3
Продолжительность : 1 ч. 35 м.
Вид битрейта : Постоянный
Битрейт : 448 Кбит/сек
Каналы : 6 каналов
Расположение каналов : Front: L C R, Side: L R, LFE
Частота : 48,0 КГц
Битовая глубина : 16 бит
Метод сжатия : С потерями
Размер потока : 307 Мбайт (5%)
Заголовок : Eng
Язык : English

Текст #1
Идентификатор : 4
Формат : UTF-8
Идентификатор кодека : S_TEXT/UTF8
Идентификатор кодека/Информация : UTF-8 Plain Text
Заголовок : Rus forced
Язык : Russian

Текст #2
Идентификатор : 5
Формат : UTF-8
Идентификатор кодека : S_TEXT/UTF8
Идентификатор кодека/Информация : UTF-8 Plain Text
Заголовок : Rus
Язык : Russian

Текст #3
Идентификатор : 6
Формат : UTF-8
Идентификатор кодека : S_TEXT/UTF8
Идентификатор кодека/Информация : UTF-8 Plain Text
Заголовок : Eng
Язык : English

Меню
00:00:00.000 : :Chapter 01
00:06:34.852 : :Chapter 02
00:12:16.569 : :Chapter 03
00:16:13.138 : :Chapter 04
00:21:29.496 : :Chapter 05
00:23:46.007 : :Chapter 06
00:28:57.193 : :Chapter 07
00:34:11.841 : :Chapter 08
00:36:53.461 : :Chapter 09
00:39:27.615 : :Chapter 10
00:43:17.761 : :Chapter 11
00:45:48.454 : :Chapter 12
00:50:03.083 : :Chapter 13
00:52:58.216 : :Chapter 14
00:57:37.287 : :Chapter 15
01:00:49.645 : :Chapter 16
01:03:39.690 : :Chapter 17
01:07:57.364 : :Chapter 18
01:11:47.511 : :Chapter 19
01:15:32.027 : :Chapter 20
01:19:40.942 : :Chapter 21
01:21:19.332 : :Chapter 22
01:23:43.476 : :Chapter 23
01:26:38.902 : :Chapter 24
01:35:57.543 : :Chapter 25


Рио 2 / Rio 2 (2014)



Информация о фильме
Название: Рио 2
Оригинальное название: Rio 2
Год выхода: 2014
Жанр: мультфильм, комедия, приключения, семейный
Режиссер: Карлос Салдана
В ролях: Энн Хэтэуэй, Джесси Айзенберг, Джейк Т. Остин, Карлиньюс Браун, Кристин Ченоуэт, Джемейн Клемент, Джим Конрой, Рэйчел Кроу, Бернардо де Паула, Нола Донкин

О фильме: Голубчик, Жемчужинка и их трое детей живут счастливой жизнью в волшебном городе Рио-де-Жанейро. Когда Жемчужинка решает, что их детям нужно научиться жить как настоящим птицам, она настаивает на авантюрной поездке в дебри реки Амазонки. Там, пытаясь вписаться в новое окружение, Голубчик начинает беспокоиться, что может потерять Жемчужинку и детей, идущих на зов дикой природы.



Выпущено: Twentieth Century Fox Animation
Продолжительность: 01:41:11
Перевод: Дублированный (лицензия)

Файл
Кодек: x264
Качество: BDRip (источник: Blu-ray Disc)
Видео: 1920x800 (2,40:1), 23.976 fps, 7250 kbps
Аудио #1: AC-3, 6 ch, 448 kbps (Rus)
Аудио #2: AC-3, 6 ch, 448 kbps (Eng)
Субтитры: Русские, Английские

Скриншоты

Общее
Уникальный идентификатор : 245097235705941710780009797847753272155 (0xB86402B39E56ABB59078F9971C55AB5B)
Полное имя : Rio.2.2014.BDRip.1080p.Rus.Eng.mkv
Формат : Matroska
Версия формата : Version 2
Размер файла : 5,76 Гбайт
Продолжительность : 1 ч. 41 м.
Общий поток : 8143 Кбит/сек
Название фильма : Рио 2 / Rio 2 (2014)
Дата кодирования : UTC 2014-07-05 04:05:17
Программа кодирования : mkvmerge v5.8.0 ('No Sleep / Pillow') built on Sep 2 2012 15:37:04
Библиотека кодирования : libebml v1.2.3 + libmatroska v1.3.0

Видео
Идентификатор : 1
Формат : AVC
Формат/Информация : Advanced Video Codec
Профиль формата : High@L4.1
Параметр CABAC формата : Да
Параметр ReFrames формата : 5 кадров
Идентификатор кодека : V_MPEG4/ISO/AVC
Продолжительность : 1 ч. 41 м.
Битрейт : 7249 Кбит/сек
Ширина : 1920 пикселей
Высота : 800 пикселей
Соотношение сторон : 2,40:1
Режим частоты кадров : Постоянный
Частота кадров : 23,976 кадра/сек
Цветовое пространство : YUV
Субдискретизация насыщенности : 4:2:0
Битовая глубина : 8 бит
Тип развёртки : Прогрессивная
Бит/(Пиксели*Кадры) : 0.197
Размер потока : 5,01 Гбайт (87%)
Заголовок : Release by AlexKa
Библиотека кодирования : x264 core 142 r2431 ac76440
Настройки программы : cabac=1 / ref=5 / deblock=1:0:0 / analyse=0x3:0x133 / me=umh / subme=11 / psy=1 / psy_rd=1.00:0.00 / mixed_ref=1 / me_range=32 / chroma_me=1 / trellis=2 / 8x8dct=1 / cqm=0 / deadzone=21,11 / fast_pskip=0 / chroma_qp_offset=-2 / threads=12 / lookahead_threads=1 / sliced_threads=0 / nr=0 / decimate=1 / interlaced=0 / bluray_compat=0 / constrained_intra=0 / bframes=6 / b_pyramid=2 / b_adapt=2 / b_bias=0 / direct=3 / weightb=1 / open_gop=0 / weightp=2 / keyint=240 / keyint_min=23 / scenecut=40 / intra_refresh=0 / rc=2pass / mbtree=0 / bitrate=7249 / ratetol=1.0 / qcomp=0.60 / qpmin=0 / qpmax=69 / qpstep=4 / cplxblur=20.0 / qblur=0.5 / ip_ratio=1.40 / pb_ratio=1.30 / aq=1:1.00
Язык : English

Аудио #1
Идентификатор : 2
Формат : AC-3
Формат/Информация : Audio Coding 3
Расширение режима : CM (complete main)
Параметр Endianness формата : Big
Идентификатор кодека : A_AC3
Продолжительность : 1 ч. 41 м.
Вид битрейта : Постоянный
Битрейт : 448 Кбит/сек
Каналы : 6 каналов
Расположение каналов : Front: L C R, Side: L R, LFE
Частота : 48,0 КГц
Битовая глубина : 16 бит
Метод сжатия : С потерями
Размер потока : 324 Мбайт (6%)
Заголовок : Rus
Язык : Russian

Аудио #2
Идентификатор : 3
Формат : AC-3
Формат/Информация : Audio Coding 3
Расширение режима : CM (complete main)
Параметр Endianness формата : Big
Идентификатор кодека : A_AC3
Продолжительность : 1 ч. 41 м.
Вид битрейта : Постоянный
Битрейт : 448 Кбит/сек
Каналы : 6 каналов
Расположение каналов : Front: L C R, Side: L R, LFE
Частота : 48,0 КГц
Битовая глубина : 16 бит
Метод сжатия : С потерями
Размер потока : 324 Мбайт (6%)
Заголовок : Eng
Язык : English

Текст #1
Идентификатор : 4
Формат : UTF-8
Идентификатор кодека : S_TEXT/UTF8
Идентификатор кодека/Информация : UTF-8 Plain Text
Заголовок : Rus
Язык : Russian

Текст #2
Идентификатор : 5
Формат : UTF-8
Идентификатор кодека : S_TEXT/UTF8
Идентификатор кодека/Информация : UTF-8 Plain Text
Заголовок : Eng
Язык : English

Меню
00:00:00.000 : :Chapter 01
00:03:10.815 : :Chapter 02
00:05:14.313 : :Chapter 03
00:08:49.362 : :Chapter 04
00:13:02.239 : :Chapter 05
00:17:36.305 : :Chapter 06
00:19:19.408 : :Chapter 07
00:22:30.348 : :Chapter 08
00:26:48.690 : :Chapter 09
00:29:00.155 : :Chapter 10
00:30:59.691 : :Chapter 11
00:33:46.566 : :Chapter 12
00:36:34.191 : :Chapter 13
00:39:20.232 : :Chapter 14
00:41:32.656 : :Chapter 15
00:45:05.119 : :Chapter 16
00:47:23.090 : :Chapter 17
00:49:58.161 : :Chapter 18
00:52:05.455 : :Chapter 19
00:55:38.918 : :Chapter 20
00:58:10.904 : :Chapter 21
01:02:11.394 : :Chapter 22
01:04:38.082 : :Chapter 23
01:07:03.936 : :Chapter 24
01:09:18.195 : :Chapter 25
01:10:21.342 : :Chapter 26
01:15:17.763 : :Chapter 27
01:17:00.157 : :Chapter 28
01:21:41.855 : :Chapter 29
01:25:24.619 : :Chapter 30
01:29:42.710 : :Chapter 31
01:32:27.959 : :Chapter 32
01:41:10.981 : :Chapter 33



   Похожие торренты   Торрент   Размер 
В этой теме нет новых непрочитанных сообщений. Рейд : Дилогия / The Raid : Dilogy (2011-2014) BDRip 1080p от R.G. HD-Films | 60 fps

40 | 36

43.05 ГБ

В этой теме нет новых непрочитанных сообщений. Ларго Винч: Дилогия / Largo Winch: Dilogy (2008-2011) BDRip 1080p

443 | 130

15.53 ГБ

В этой теме нет новых непрочитанных сообщений. Шерлок Холмс: Дилогия / Sherlock Holmes: Dilogy (2009-2011) BDRip 1080p

78 | 98

15.52 ГБ

В этой теме нет новых непрочитанных сообщений. Тачки: Дилогия / Cars: Dilogy (2006-2011) BDRip 1080p от NoLimits-Team

11 | 4

15.9 ГБ

В этой теме нет новых непрочитанных сообщений. Кунг-фу Панда: Дилогия / Kung Fu Panda: Dilogy (2008-2011) BDRip 1080p от R.G. HD-Films | 60 fps

169 | 71

16.97 ГБ

В этой теме нет новых непрочитанных сообщений. Шерлок Холмс: Дилогия / Sherlock Holmes: Dilogy (2009-2011) BDRip 1080p от R.G. HD-Films | 60 fps | D

176 | 131

27.15 ГБ

В этой теме нет новых непрочитанных сообщений. 300 спартанцев: Дилогия / 300: Dilogy (2007-2014) BDRip 1080p от R.G. HD-Films | 60 fps | D

563 | 53

21.51 ГБ




Вы не можете начинать темы
Вы не можете отвечать на сообщения
Вы не можете редактировать свои сообщения
Вы не можете удалять свои сообщения
Вы не можете добавлять вложения

Перейти:  
Для Мосгорсуда, Роскомнадзора и рекламодателей: mosgorsud-torrent[собачка]yandex.ru
 Вход
ppkBB3cker v.2 © 2008-2014 @ PPK
[ Time : 0.038s | 14 Queries | GZIP : Off ]

Торрент трекер RUTOR.IN, Не можете зайти на rutor.org? Какой новый адрес рутор? Какое зеркало рутор? Не работает rutor.org и зеркала? Тогда наш торрент специально для вас. Rutor.in неофициальное зеркало rutor. В случае если у Вас заблокирован rutor или вдруг Вы не можете на него зайти, то Вы без труда сможете скачать бесплатно и без рекламы последние новинки кино, игр, сериалов и прочего у нас, на Rutor.in. Не нужно использовать прокси, чтобы зайти на рутор, достаточно воспользоваться нашим ресурсом. Все новые фильмы, игры, сериалы, книги и музыка за 2013 и 2014 годы через торрент бесплатно. Скачивайте фильмы в хорошем качестве, игры для пк, xbox, playstation без регистрации. У нас вы найдете новые Зарубежные сериалы и Русские сериалы 2013, 2014, 2015 годов. Оставайтесь с нами, качайте любимые фильмы, игры, сериалы, книги и музыку.