img image001 image001 image001 image001 image001 image001 image001 image001 image001 image001 image001 image001 image001 image001 image001

Planets Sun Sun Sun
Статистика раздачи
Автор: Nickolas3434 | Размер: 3.6 ГБ | Добавлен: 10 июл 2014
Раздают: 169    Качают: 43
Скачать торрент
Скачать торрент
Описание торрента

СообщениеДобавлено: 10 июл 2014 

Информация о фильме
Название: Пингвиненок Пороро
Оригинальное название: Pororo the Little Penguin
Год выхода: 2007
Жанр: мультфильм, детский
Режиссер: Иль Хо Ким

О фильме:
Где-то далеко-далеко, в месте, о котором люди даже не слышали, есть лес, весь покрытый снегом и льдом. В самой глубине этого леса прячется деревушка, в которой живут маленькие зверята. Солнце там светит теплее всего, а холодный ветер совсем не кусает за нос. Обитатели деревни — очень любознательный и шаловливый пингвиненок Пороро, добродушный белый медведь Поби, хитрый и любопытный рыжий лисенок Эдди, застенчивая и скромная малышка-бобренок Лупи и Кронг, маленький товарищ Пороро. У всех у них очень разные характеры и интересы. Иногда зверята ссорятся, но обычно им очень весело проводить время вместе. А главное — все они дорожат своей дружбой и всегда рады помочь друг другу.
01. Hello, Friends / Привет, друзья
02. Petty’s House / Домик для Петти
03. Learning How to Swim / Учимся плавать
04. Poby the Photographer / Поби — фотограф
05. It’s a dinosaur! / Это динозавр!
06. Sailing in the Forest / Плавание по лесу
07. Меня зовут Гарри
08. Я люблю петь
09. Красивая заколка
10. The Biggest Snowman / Самый большой снеговик
11. Великий художник Кронг
12. I Can Fly / Я умею летать
13. I Envy You / Я тебе завидую
14. Petty, You Are So Cool / Петти, ты молодец!
15. Pororo Shrunk / Пороро уменьшается
16. Нападение акулы!
18. Я Супер — Кронг!
22. Crong Meets with a Seal / Кронг знакомится с тюленем
23. Белоснежка Лупи!
26. My Toy Fellas / Мои игрушечные друзья
27. Pig Pororo / Пороро — поросёнок
28. Loopy and Petty / Лупи и Петти
29. Eddy on the Moon / Эдди на Луне
30. Друзья из космоса
31. Ты не одинок!
32. Тайный друг Петти
33. Scary Cookies / Страшные печеньки
35. Появление драгона
36. Finding Toy / Пропавшая игрушка
37. Не делай так!
38. Разноцветная страна
39. Хороший Кронг, плохой Кронг!
42. Do You Need Any Help / Тебе нужна помощь
43. Лупи — волшебница!
44. Is Pororo Sick / Пороро заболел
45. A Snowy Day / Снежный день
46. Piece Of Cake / Кусок пирога
47. Снежное чудовище
48. What's This Smell / Что это за запах
49. Robot Cook / Робот-повар
50. Viruses Are Following Me / За мной гонятся микробы
51. Return Of Robot Cook / Возвращение робота-повара
52. Watch Out Pororo / Осторожно, Пороро

Официальный сайт

Страна: Корея Южная
Студия: Iconix Entertainment
Продолжительность: ~ 00:07:00 серия
Перевод: Дублированный

Файл
Кодек: XviD / AC3
Качество: SATRip
Видео: MPEG4, XviD, 720x448 (1.607), 25.000 fps, 1 492 Kbps (0.185 bit/pixel)
Звук: AC-3, 48.0 KHz, 2 ch, 192 Kbps, CBR

General
Complete name : /Пингвинёнок Пороро.(2.sezon).2007.XviD.SATRip.Thunder/01. Привет, друзья.avi
Format : AVI
Format/Info : Audio Video Interleave
File size : 85.6 MiB
Duration : 7mn 3s
Overall bit rate : 1 694 Kbps
Director : SATRip by Thunder
Writing application : VirtualDubMod 1.5.10.3 | www.virtualdub-fr.org || (build 2550/release)
Original source form/Name : Cartoon

Video
ID : 0
Format : MPEG-4 Visual
Format profile : Advanced Simple@L5
Format settings, BVOP : 2
Format settings, QPel : No
Format settings, GMC : No warppoints
Format settings, Matrix : Default (H.263)
Codec ID : XVID
Codec ID/Hint : XviD
Duration : 7mn 3s
Bit rate : 1 492 Kbps
Width : 720 pixels
Height : 448 pixels
Display aspect ratio : 1.607
Frame rate : 25.000 fps
Color space : YUV
Chroma subsampling : 4:2:0
Bit depth : 8 bits
Scan type : Progressive
Compression mode : Lossy
Bits/(Pixel*Frame) : 0.185
Stream size : 75.4 MiB (88%)
Writing library : XviD 1.2.1 (UTC 2008-12-04)

Audio
ID : 1
Format : AC-3
Format/Info : Audio Coding 3
Mode extension : CM (complete main)
Format settings, Endianness : Big
Codec ID : 2000
Duration : 7mn 3s
Bit rate mode : Constant
Bit rate : 192 Kbps
Channel(s) : 2 channels
Channel positions : Front: L R
Sampling rate : 48.0 KHz
Bit depth : 16 bits
Compression mode : Lossy
Stream size : 9.70 MiB (11%)
Alignment : Split accross interleaves
Interleave, duration : 40 ms (1.00 video frame)
Interleave, preload duration : 500 ms



   Похожие торренты   Торрент   Размер 
В этой теме нет новых непрочитанных сообщений. Пингвиненок Пороро / Pororo the Little Penguin [02x01-52] (2007) SATRip | D

630 | 110

4.36 ГБ

В этой теме нет новых непрочитанных сообщений. Пингвиненок Пороро / Pororo the Little Penguin [02x01-22] (2007) SATRip | D

246 | 94

1.84 ГБ

В этой теме нет новых непрочитанных сообщений. Пингвиненок Пороро / Pororo the Little Penguin [02x01-31] (2007) SATRip | D

54 | 83

2.6 ГБ

В этой теме нет новых непрочитанных сообщений. Пингвиненок Пороро / Pororo The Little Penguin [02x01-52 из 52] (2007) WEB-DLRip от -merci- | D

33 | 7

4.38 ГБ

В этой теме нет новых непрочитанных сообщений. Пингвиненок Пороро / Pororo the Little Penguin [01-52] (2007) SATRip | D

1040 | 170

4.43 ГБ

В этой теме нет новых непрочитанных сообщений. Пингвиненок Пороро / Pororo The Little Penguin [03x01-52 из 52] (2007) WEB-DLRip от -merci- | D

133 | 12

4.81 ГБ

В этой теме нет новых непрочитанных сообщений. Пингвиненок Пороро / Pororo The Little Penguin [01x01-52 из 52] (2007) WEB-DLRip от -merci- | D

177 | 14

4.45 ГБ




Вы не можете начинать темы
Вы не можете отвечать на сообщения
Вы не можете редактировать свои сообщения
Вы не можете удалять свои сообщения
Вы не можете добавлять вложения

Перейти:  
Для Мосгорсуда, Роскомнадзора и рекламодателей: mosgorsud-torrent[собачка]yandex.ru
 Вход
ppkBB3cker v.2 © 2008-2014 @ PPK
[ Time : 3.776s | 16 Queries | GZIP : On ]

Торрент трекер RUTOR.IN, Не можете зайти на rutor.org? Какой новый адрес рутор? Какое зеркало рутор? Не работает rutor.org и зеркала? Тогда наш торрент специально для вас. Rutor.in неофициальное зеркало rutor. В случае если у Вас заблокирован rutor или вдруг Вы не можете на него зайти, то Вы без труда сможете скачать бесплатно и без рекламы последние новинки кино, игр, сериалов и прочего у нас, на Rutor.in. Не нужно использовать прокси, чтобы зайти на рутор, достаточно воспользоваться нашим ресурсом. Все новые фильмы, игры, сериалы, книги и музыка за 2013 и 2014 годы через торрент бесплатно. Скачивайте фильмы в хорошем качестве, игры для пк, xbox, playstation без регистрации. У нас вы найдете новые Зарубежные сериалы и Русские сериалы 2013, 2014, 2015 годов. Оставайтесь с нами, качайте любимые фильмы, игры, сериалы, книги и музыку.
cron