img image001 image001 image001 image001 image001 image001 image001 image001 image001 image001 image001 image001 image001 image001 image001

Planets Sun Sun Sun
Статистика раздачи
Автор: Nickolas3434 | Размер: 6.73 ГБ | Добавлен: 10 июл 2014
Раздают: 213    Качают: 54
Скачать торрент
Скачать торрент
Описание торрента

СообщениеДобавлено: 10 июл 2014 

Информация о фильме
Название: Доктор Плюшева
Оригинальное название: Doc McStuffins
Год выхода: 2011
Жанр: мультфильм
Режиссер: Нортон Вирген, Мария Эстрада, Сауль Эндрю Блинкофф
В ролях: Джейден Беттс, Киара Мухаммад, Лара Джилл Миллер, Робби Рист, Лоретта Дивайн, Кэйтлин Кармайкл, Джесс Харнелл, Кайли Андерсон, Гари Энтони Уильямс, Кимберли Брукс

О фильме:
Хорошим врачом может быть даже ребенок. Главное — желание помочь близким. В этом уверена 6-летняя героиня мультсериала Дотти, зовущая себя Доктор Плюшева, которая просто обожает свои игрушки. Стоит ей только поднести к ним стетоскоп, и они оживают!

Теперь плюшевых зверей можно спросить о самочувствии, измерить им температуру и выписать рецепты, как настоящим пациентам. Вместе с помощниками — драконом Стаффи, овечкой Лэмми и бегемотиком Хэлли — Дотти каждый день учится соблюдать гигиену, правильно питаться и укреплять здоровье.

01. Джек из шкатулки + Уставший гонщик (Out of The Box + Run Down Race Car)
02. Время рыцарей + Тяжёлый случай Уколошипоза (Knight Time + A Bad Case of the Pricklethorns)
03. Капризное чаепитие + Старт ракеты! (Tea Party Tantrum! + Blast Off!)
04. Пожарная машина к службе готова + Так держать! (Engine Nine, Feelin' Fine + The Right Stuff)
05. Ненасытные крокодилы + Фальшивая нота (Gulpy, Gulpy Gators! + One Note Wonder)
06. Приключения в игротеке + Звёздная, звёздная ночь (Arcade Escapade + Starry, Starry Night)
07. Бен-Анновый сплит + Просто клешне-лепно (Ben-Anna Split + That’s Just Claw-ful)
08. Серьёзный приступ икоты + В замешательстве (A Good Case of the Hiccups + Stuck Up)
09. Ронда-спасатель к взлёту готова + Водные забавы (Rescue Ronda, Ready for Takeoff + All Washed Up)
10. Новенькая + Перевязка (The New Girl + Wrap it Up)
11. Дай отдохнуть винтам, Ронда! + Езда без конца (Rest Your Rotors, Ronda! + Keep on Truckin)
12. Во всём виноват дождь + Сплющенный Бумер (Blame It on the Rain + Busted Boomer)
13. Рыцарь и темнота + Хелли теряет слух (The Dark Knight + Hallie Gets an Earful)
14. Балерина + Мартышка и пузырьки (Break Dancer + Bubble Monkey)
15. На природе + Кит-малютка (Out in the Wild + A Whale of Time)
16. Рана, о которой услышал весь мир + Время раций (The Rip Heard Round the World + Walkie Talkie Time)
17. Колючки-прилипучки + Левое вместо правого (Un-Bur-Able + Righty-on-Lefty)
18. День рождения Хелли + И у акул болят зубы (Hallie Happy Birthday + Shark Style Tooth Ache)
19. Забавные опоссумы + Грустный крольчонок (Awesome Possum + The Bunny Blues)
20. Пора искупаться + Шумный Луи (Get Set to Get Wet + Loud Louis)
21. Поймать за руку + Пищать или не пищать (Caught Blue-Handed + To Squeak or Not to Sqeak)
22. Лечение доктора + Жаркая погоня (Doctoring the Doc + Hot Pursuit)
23. Как страшно + Пора светиться (Boo-Hoo to You! + It's Glow Time)

Официальный сайт

Страна: США, Ирландия
Студия: Walt Disney
Продолжительность: ~ 00:24:00 серия
Перевод: Дублированный

Файл
Кодек: h.264 / AC3
Качество: WEBDLRip-AVC
Видео: AVC, 640x480@853x480 (16:9), 23.976 fps, 1 518 Kbps (0.206 bit/pixel)
Звук: AC-3, 48.0 KHz, 2 ch, 192 Kbps, CBR (Russian)

General
Unique ID : 199246751013538807240024826388691629750 (0x95E58745DEC39E48BA93885FA92536B6)
Complete name : s1e01. Out of The Box + Run Down Race Car.mkv
Format : Matroska
Format version : Version 4 / Version 2
File size : 301 MiB
Duration : 24mn 7s
Overall bit rate : 1 745 Kbps
Encoded date : UTC 2010-02-22 21:41:31
Writing application : mkvmerge v5.8.0 ('No Sleep / Pillow') built on Nov 13 2012 19:43:22
Writing library : libebml v1.3.0 + libmatroska v1.4.0

Video
ID : 1
Format : AVC
Format/Info : Advanced Video Codec
Format profile : Baseline@L3.0
Format settings, CABAC : No
Format settings, ReFrames : 1 frame
Muxing mode : Header stripping
Codec ID : V_MPEG4/ISO/AVC
Duration : 24mn 7s
Bit rate : 1 518 Kbps
Width : 640 pixels
Height : 480 pixels
Display aspect ratio : 16:9
Frame rate mode : Constant
Frame rate : 23.976 fps
Color space : YUV
Chroma subsampling : 4:2:0
Bit depth : 8 bits
Scan type : Progressive
Bits/(Pixel*Frame) : 0.206
Stream size : 262 MiB (87%)
Language : English
Default : Yes
Forced : No
Color primaries : BT.601 NTSC
Transfer characteristics : BT.709
Matrix coefficients : BT.601

Audio
ID : 2
Format : AC-3
Format/Info : Audio Coding 3
Mode extension : CM (complete main)
Format settings, Endianness : Big
Muxing mode : Header stripping
Codec ID : A_AC3
Duration : 24mn 7s
Bit rate mode : Constant
Bit rate : 192 Kbps
Channel(s) : 2 channels
Channel positions : Front: L R
Sampling rate : 48.0 KHz
Bit depth : 16 bits
Compression mode : Lossy
Stream size : 33.1 MiB (11%)
Language : Russian
Default : Yes
Forced : No



   Похожие торренты   Торрент   Размер 
В этой теме нет новых непрочитанных сообщений. Доктор Плюшева / Doc McStuffins [S01] (2011) WEBDL 720p | D

78 | 71

11.79 ГБ

В этой теме нет новых непрочитанных сообщений. Доктор Плюшева / Doc McStuffins [S01] (2011 - 2013) WEB-DLRip от Youtracker | D

11 | 4

6.59 ГБ

В этой теме нет новых непрочитанных сообщений. Доктор Плюшева / Doc McStuffins [S01] (2011 - 2013) SATRip от Youtracker | D

3 | 2

6.56 ГБ

В этой теме нет новых непрочитанных сообщений. Доктор Плюшева / Doc McStuffins [01x01-05 из ?] (2011 - 2013) DVD9 R5 от Youtracker | D

0 | 1

6.35 ГБ

В этой теме нет новых непрочитанных сообщений. Доктор Плюшева / Doc McStuffins [01x01-05 из ?] (2011 - 2013) DVDRip от Youtracker | D | лицензия

167 | 10

1.93 ГБ

В этой теме нет новых непрочитанных сообщений. Доктор Плюшева / Doc McStuffins [01x01-05 из ?] (2011 - 2013) DVDRip-AVC от Youtracker | D | лицензия

17 | 4

1.93 ГБ

В этой теме нет новых непрочитанных сообщений. Доктор Плюшева / Doc McStuffins [02x01-20] (2013-2014) WEB-DL | D

159 | 95

5.37 ГБ




Вы не можете начинать темы
Вы не можете отвечать на сообщения
Вы не можете редактировать свои сообщения
Вы не можете удалять свои сообщения
Вы не можете добавлять вложения

Перейти:  
Для Мосгорсуда, Роскомнадзора и рекламодателей: mosgorsud-torrent[собачка]yandex.ru
 Вход
ppkBB3cker v.2 © 2008-2014 @ PPK
[ Time : 0.020s | 17 Queries | GZIP : On ]

Торрент трекер RUTOR.IN, Не можете зайти на rutor.org? Какой новый адрес рутор? Какое зеркало рутор? Не работает rutor.org и зеркала? Тогда наш торрент специально для вас. Rutor.in неофициальное зеркало rutor. В случае если у Вас заблокирован rutor или вдруг Вы не можете на него зайти, то Вы без труда сможете скачать бесплатно и без рекламы последние новинки кино, игр, сериалов и прочего у нас, на Rutor.in. Не нужно использовать прокси, чтобы зайти на рутор, достаточно воспользоваться нашим ресурсом. Все новые фильмы, игры, сериалы, книги и музыка за 2013 и 2014 годы через торрент бесплатно. Скачивайте фильмы в хорошем качестве, игры для пк, xbox, playstation без регистрации. У нас вы найдете новые Зарубежные сериалы и Русские сериалы 2013, 2014, 2015 годов. Оставайтесь с нами, качайте любимые фильмы, игры, сериалы, книги и музыку.