img image001 image001 image001 image001 image001 image001 image001 image001 image001 image001 image001 image001 image001 image001 image001

Planets Sun Sun Sun
Статистика раздачи
Автор: Nickolas3434 | Размер: 11.79 ГБ | Добавлен: 11 июл 2014
Раздают: 78    Качают: 71
Скачать торрент
Скачать торрент
Описание торрента

СообщениеДобавлено: 11 июл 2014 

Информация о фильме
Название: Доктор Плюшева
Оригинальное название: Doc McStuffins
Год выхода: 2011
Жанр: мультфильм
Режиссер: Нортон Вирген, Мария Эстрада, Сауль Эндрю Блинкофф
В ролях: Джейден Беттс, Киара Мухаммад, Лара Джилл Миллер, Робби Рист, Лоретта Дивайн, Кэйтлин Кармайкл, Джесс Харнелл, Кайли Андерсон, Гари Энтони Уильямс, Кимберли Брукс

О фильме:
Хорошим врачом может быть даже ребенок. Главное — желание помочь близким. В этом уверена 6-летняя героиня мультсериала Дотти, зовущая себя Доктор Плюшева, которая просто обожает свои игрушки. Стоит ей только поднести к ним стетоскоп, и они оживают!

Теперь плюшевых зверей можно спросить о самочувствии, измерить им температуру и выписать рецепты, как настоящим пациентам. Вместе с помощниками — драконом Стаффи, овечкой Лэмми и бегемотиком Хэлли — Дотти каждый день учится соблюдать гигиену, правильно питаться и укреплять здоровье.

01. Джек из шкатулки + Уставший гонщик (Out of The Box + Run Down Race Car)
02. Время рыцарей + Тяжёлый случай Уколошипоза (Knight Time + A Bad Case of the Pricklethorns)
03. Капризное чаепитие + Старт ракеты! (Tea Party Tantrum! + Blast Off!)
04. Пожарная машина к службе готова + Так держать! (Engine Nine, Feelin' Fine + The Right Stuff)
05. Ненасытные крокодилы + Фальшивая нота (Gulpy, Gulpy Gators! + One Note Wonder)
06. Приключения в игротеке + Звёздная, звёздная ночь (Arcade Escapade + Starry, Starry Night)
07. Бен-Анновый сплит + Просто клешне-лепно (Ben-Anna Split + That’s Just Claw-ful)
08. Серьёзный приступ икоты + В замешательстве (A Good Case of the Hiccups + Stuck Up)
09. Ронда-спасатель к взлёту готова + Водные забавы (Rescue Ronda, Ready for Takeoff + All Washed Up)
10. Новенькая + Перевязка (The New Girl + Wrap it Up)
11. Дай отдохнуть винтам, Ронда! + Езда без конца (Rest Your Rotors, Ronda! + Keep on Truckin)
12. Во всём виноват дождь + Сплющенный Бумер (Blame It on the Rain + Busted Boomer)
13. Рыцарь и темнота + Хелли теряет слух (The Dark Knight + Hallie Gets an Earful)
14. Балерина + Мартышка и пузырьки (Break Dancer + Bubble Monkey)
15. На природе + Кит-малютка (Out in the Wild + A Whale of Time)
16. Рана, о которой услышал весь мир + Время раций (The Rip Heard Round the World + Walkie Talkie Time)
17. Колючки-прилипучки + Левое вместо правого (Un-Bur-Able + Righty-on-Lefty)
18. День рождения Хелли + И у акул болят зубы (Hallie Happy Birthday + Shark Style Tooth Ache)
19. Забавные опоссумы + Грустный крольчонок (Awesome Possum + The Bunny Blues)
20. Пора искупаться + Шумный Луи (Get Set to Get Wet + Loud Louis)
21. Поймать за руку + Пищать или не пищать (Caught Blue-Handed + To Squeak or Not to Sqeak)
22. Лечение доктора + Жаркая погоня (Doctoring the Doc + Hot Pursuit)
23. Как страшно + Пора светиться (Boo-Hoo to You! + It's Glow Time)
24. Замерзший Чилли + Мир сквозь очки (Chilly Gets Chilly + Through the Reading Glasses)
25. Валентинка-обнимашка + Пыльный мишка (My Huggy Valentine + Dusty Bear)
26. Бронто Бо-бо + Дыхание бронтозавра (Bronto-Boo boos + Brontosaurus Breath)

Официальный сайт

Страна: США, Ирландия
Студия: Walt Disney
Продолжительность: ~ 00:24:00 серия
Перевод: Дублированный

Файл
Кодек: h.264 / AC3
Качество: WEBDL 720p
Видео: AVC, 1280x720 (16:9), 23.976 fps, 2 455 Kbps (0.111 bit/pixel)
Звук: AC-3, 48.0 KHz, 2 ch, 192 Kbps, CBR (Russian)

General
Unique ID : 210834233854837171066107727256637526790 (0x9E9D32491FF87F17AA3452E0F229D306)
Complete name : /Доктор Плюшева.Сезон-1.720p.WEB-DL.x264.-merci/01. Джек из шкатулки + Уставший гонщик.mkv
Format : Matroska
Format version : Version 2
File size : 464 MiB
Duration : 23mn 59s
Overall bit rate : 2 701 Kbps
Movie name : Доктор Плюшева / Doc McStuffins / 1 сезои / - merci -
Encoded date : UTC 2014-07-08 12:00:05
Writing application : mkvmerge v5.8.0 ('No Sleep / Pillow') built on Sep 2 2012 15:37:04
Writing library : libebml v1.2.3 + libmatroska v1.3.0

Video
ID : 1
Format : AVC
Format/Info : Advanced Video Codec
Format profile : High@L3.1
Format settings, CABAC : Yes
Format settings, ReFrames : 4 frames
Codec ID : V_MPEG4/ISO/AVC
Duration : 23mn 59s
Bit rate : 2 455 Kbps
Width : 1 280 pixels
Height : 720 pixels
Display aspect ratio : 16:9
Frame rate : 23.976 fps
Color space : YUV
Chroma subsampling : 4:2:0
Bit depth : 8 bits
Scan type : Progressive
Bits/(Pixel*Frame) : 0.111
Stream size : 421 MiB (91%)
Title : 01. Джек из шкатулки + Уставший гонщик
Language : English
Default : Yes
Forced : No
Color primaries : BT.709-5, BT.1361, IEC 61966-2-4, SMPTE RP177
Transfer characteristics : BT.709-5, BT.1361
Matrix coefficients : BT.709-5, BT.1361, IEC 61966-2-4 709, SMPTE RP177

Audio
ID : 2
Format : AC-3
Format/Info : Audio Coding 3
Mode extension : CM (complete main)
Format settings, Endianness : Big
Codec ID : A_AC3
Duration : 23mn 59s
Bit rate mode : Constant
Bit rate : 192 Kbps
Channel(s) : 2 channels
Channel positions : Front: L R
Sampling rate : 48.0 KHz
Bit depth : 16 bits
Compression mode : Lossy
Stream size : 33.0 MiB (7%)
Title : rus
Language : Russian
Default : Yes
Forced : No



   Похожие торренты   Торрент   Размер 
В этой теме нет новых непрочитанных сообщений. Доктор Плюшева / Doc McStuffins [S01] (2011) WEBDLRip-AVC | D

213 | 54

6.73 ГБ

В этой теме нет новых непрочитанных сообщений. Доктор Плюшева / Doc McStuffins [S01] (2011 - 2013) WEB-DLRip от Youtracker | D

11 | 4

6.59 ГБ

В этой теме нет новых непрочитанных сообщений. Доктор Плюшева / Doc McStuffins [S01] (2011 - 2013) SATRip от Youtracker | D

3 | 2

6.56 ГБ

В этой теме нет новых непрочитанных сообщений. Доктор Плюшева / Doc McStuffins [01x01-05 из ?] (2011 - 2013) DVD9 R5 от Youtracker | D

0 | 1

6.35 ГБ

В этой теме нет новых непрочитанных сообщений. Доктор Плюшева / Doc McStuffins [02x01-20] (2013-2014) WEB-DL 720p | D

90 | 89

9.7 ГБ

В этой теме нет новых непрочитанных сообщений. Доктор Плюшева / Doc McStuffins [01x01-05 из ?] (2011 - 2013) DVDRip-AVC от Youtracker | D | лицензия

17 | 4

1.93 ГБ

В этой теме нет новых непрочитанных сообщений. Доктор Плюшева / Doc McStuffins [01x01-05 из ?] (2011 - 2013) DVDRip от Youtracker | D | лицензия

167 | 10

1.93 ГБ




Вы не можете начинать темы
Вы не можете отвечать на сообщения
Вы не можете редактировать свои сообщения
Вы не можете удалять свои сообщения
Вы не можете добавлять вложения

Перейти:  
Для Мосгорсуда, Роскомнадзора и рекламодателей: mosgorsud-torrent[собачка]yandex.ru
 Вход
ppkBB3cker v.2 © 2008-2014 @ PPK
[ Time : 0.046s | 16 Queries | GZIP : Off ]

Торрент трекер RUTOR.IN, Не можете зайти на rutor.org? Какой новый адрес рутор? Какое зеркало рутор? Не работает rutor.org и зеркала? Тогда наш торрент специально для вас. Rutor.in неофициальное зеркало rutor. В случае если у Вас заблокирован rutor или вдруг Вы не можете на него зайти, то Вы без труда сможете скачать бесплатно и без рекламы последние новинки кино, игр, сериалов и прочего у нас, на Rutor.in. Не нужно использовать прокси, чтобы зайти на рутор, достаточно воспользоваться нашим ресурсом. Все новые фильмы, игры, сериалы, книги и музыка за 2013 и 2014 годы через торрент бесплатно. Скачивайте фильмы в хорошем качестве, игры для пк, xbox, playstation без регистрации. У нас вы найдете новые Зарубежные сериалы и Русские сериалы 2013, 2014, 2015 годов. Оставайтесь с нами, качайте любимые фильмы, игры, сериалы, книги и музыку.