img image001 image001 image001 image001 image001 image001 image001 image001 image001 image001 image001 image001 image001 image001 image001

Planets Sun Sun Sun
Статистика раздачи
Автор: Nickolas3434 | Размер: 9.77 ГБ | Добавлен: 10 июл 2014
Раздают: 77    Качают: 165
Скачать торрент
Скачать торрент
Описание торрента

СообщениеДобавлено: 10 июл 2014 




Информация о фильме

Название : Драконы: Защитники Олуха
Оригинальное название : Dragons: Defenders of Berk

Год выхода : 2013
Страна : США
Производство : DreamWorks Animation SKG
Жанр : фэнтези, приключения, комедия, семейный
Режиссеры : Энтони Белл / Anthony Bell, Джон Санфорд / John Sanford, Луи Дел Кармен / Louie del Carmen
Роли озвучивали : Джей Барушель, Америка Феррера, Кристофер Минц-Плассе, ТиДжей Миллер, Нолан Норт, Крис Эджерли, Зак Перлман, Эндри Вермелен, Тим Конуэй, Томас Ф. Уилсон, Стивен Рут, Марк Хэмилл
Роли дублировали : Андрей Лёвин (Иккинг), Валерий Соловьев (Стоик), Алексей Макрецкий (Плевака), Софья Ануфриева (Астрид), Михаил Хрусталёв (Сморкала), Игорь Виноградов (Рыбьеног), Александр Разбаш (Задирака), Марианна Талалакина (Семенова) (Забияка)

Описание : Приключения драконов и всадников Олуха продолжаются. В новом сезоне юные викинги берут на себя ответственность по защите Олуха. Они формируют тайный Драконий Клуб, чтобы сражаться со старыми врагами с новыми знаниями о драконах и новыми лётными навыками, и начинают становиться из опытных всадников отважными защитниками.
Вместе с храбрыми друзьями - людьми, и верными союзниками - драконами, Иккинг и Беззубик выступят против старых неприятелей и новых врагов. Их ожидают захватывающие приключения, они столкнутся с редкими и дикими драконами, а также с врагом, способным поставить под угрозу само существование острова Олух.

Сериал служит мостом, связывающим фильм "Как приручить дракона" с его будущим полнометражным продолжением "Как приручить дракона 2", создатели которого тесно работают с создателями сериала. Вследствие всего этого в самом "Как приручить дракона 2" будут отсылки и сюрпризы, которые поймут только те, кто смотрел сериал. Премьера "Как приручить дракона 2" в России состоится 12 июня 2014-го года.
Продолжительность : ~22 мин. серия
Перевод : Профессиональный (полное дублирование) [НЕВАФИЛЬМ]


Доп. информация : Сериал транслируют на канале . Новые серии показывают по понедельникам в 20:00 по московскому времени.
Запись дубляжа с Cartoon Network Russia: Hanway, DIMA_PEREYASLAVETS. Подстраховка записи: Rishkhaan.
Над русским дубляжом мультсериала работает та же студия, которая работала над дубляжом полнометражного фильма "Как приручить дракона" и короткометражек, сохранены большинство актёров из фильма.
Нумерация серий в раздаче выдержана в оригинальном производственном порядке, в котором Cartoon Network Russia и транслирует сериал, равно как и все другие версии канала по всему миру.

Автор релиза : Rishkhaan

#77
Файл

Формат видео : MKV
Качество : WEB-DL 1080p

Видео : AVC, 1912x1072 (16:9), 23.976fps ~4762Kbps High@L4.0
Звук 1: AC3, 48.0 KHz, 2 ch, ~224 Kbps (Русский)
Звук 2: AC3, 48.0 KHz, 6 ch, ~384 Kbps (Английский)
Субтитры : Русские (Крукс, Hanway, Serimon), английские (внешним файлом)



1. Живи и летай (Live and Let Fly)
2. Железный Громмель (The Iron Gronckle)
3. Ночная ярость (The Night and the Fury)
4. Враг под ногами (Tunnel Vision)
5. Остров Огненных Драконов (Race to Fireworm Island)
6. Испытание ужасом (Fright of Passage)
7. Последний в соревновании (Worst in Show)
8. Зверский аппетит (Appetite for Destruction)
9. Капкан для Пристеголова (Zippleback Down)
10. Виды на Кревета – Часть 1 (A View to a Skrill – Part 1)
11. Виды на Кревета – Часть 2 (A View to a Skrill – Part 2)







Общее
Уникальный идентификатор : 220869778257332118120676763007525647745 (0xA629F8D364875FF7B2E45BB3ED50F581)
Полное имя : H:Dragons - Defenders of Berk [Season 2] (2013-2014) WEB-DL 1080p [Rus, Eng]S02E01 - Live and Let Fly.mkv
Формат : Matroska
Версия формата : Version 4 / Version 2
Размер файла : 887 Мбайт
Продолжительность : 22 м.
Общий поток : 5479 Кбит/сек
Название фильма : Драконы: Защитники Олуха / Dragons: Defenders of Berk (2013-2014) [S02E01] Живи и летай / Live and Let Fly
Дата кодирования : UTC 2014-02-04 13:39:37
Программа кодирования : mkvmerge v6.0.0 ('Coming Up For Air') built on Jan 20 2013 09:52:00
Библиотека кодирования : libebml v1.3.0 + libmatroska v1.4.0

Видео
Идентификатор : 1
Формат : AVC
Формат/Информация : Advanced Video Codec
Профиль формата : High@L4.0
Параметр CABAC формата : Да
Параметр ReFrames формата : 4 кадра
Идентификатор кодека : V_MPEG4/ISO/AVC
Продолжительность : 22 м.
Битрейт : 4762 Кбит/сек
Ширина : 1912 пикселей
Высота : 1072 пикселя
Соотношение сторон : 16:9
Частота кадров : 23,976 кадра/сек
Цветовое пространство : YUV
Субдискретизация насыщенности : 4:2:0
Битовая глубина : 8 бит
Тип развёртки : Прогрессивная
Бит/(Пиксели*Кадры) : 0.097
Размер потока : 771 Мбайт (87%)
Заголовок : WEB-DL 1080p
Язык : English
Default : Да
Forced : Нет
Основные цвета : BT.709-5, BT.1361, IEC 61966-2-4, SMPTE RP177
Характеристики трансфера : BT.709-5, BT.1361
Коэффициенты матрицы : BT.709-5, BT.1361, IEC 61966-2-4 709, SMPTE RP177

Аудио #1
Идентификатор : 2
Формат : AC-3
Формат/Информация : Audio Coding 3
Расширение режима : CM (complete main)
Идентификатор кодека : A_AC3
Продолжительность : 22 м.
Вид битрейта : Постоянный
Битрейт : 224 Кбит/сек
Каналы : 2 канала
Расположение каналов : Front: L R
Частота : 48,0 КГц
Битовая глубина : 16 бит
Метод сжатия : С потерями
Размер потока : 36,2 Мбайт (4%)
Заголовок : Дубляж [Невафильм]
Язык : Russian
Default : Да
Forced : Нет

Аудио #2
Идентификатор : 3
Формат : AC-3
Формат/Информация : Audio Coding 3
Расширение режима : CM (complete main)
Идентификатор кодека : A_AC3
Продолжительность : 22 м.
Вид битрейта : Постоянный
Битрейт : 384 Кбит/сек
Каналы : 6 каналов
Расположение каналов : Front: L C R, Side: L R, LFE
Частота : 48,0 КГц
Битовая глубина : 16 бит
Метод сжатия : С потерями
Размер потока : 62,1 Мбайт (7%)
Заголовок : Оригинал
Язык : English
Default : Нет
Forced : Нет







   Похожие торренты   Торрент   Размер 
В этой теме нет новых непрочитанных сообщений. Драконы: Защитники Олуха / Dragons: Defenders of Berk [S02x01-16 из 20] (2013) WEB-DL 1080p | D

32 | 49

14.27 ГБ

В этой теме нет новых непрочитанных сообщений. Драконы: Защитники Олуха / Dragons: Defenders of Berk [S02x01-09 из 20] (2013) WEB-DL 1080p | D

102 | 15

7.98 ГБ

В этой теме нет новых непрочитанных сообщений. Драконы: Защитники Олуха / Dragons: Defenders of Berk [S02x01-14 из 20] (2013) WEB-DL 1080p | D

34 | 159

12.46 ГБ

В этой теме нет новых непрочитанных сообщений. Драконы: Защитники Олуха / Dragons: Defenders of Berk [S02x01-16 из 20] (2013) WEB-DLRip | D

76 | 38

5.04 ГБ

В этой теме нет новых непрочитанных сообщений. Драконы: Защитники Олуха / Dragons: Defenders of Berk [S02x01-09 из 20] (2013) WEB-DLRip | D

169 | 17

2.84 ГБ

В этой теме нет новых непрочитанных сообщений. Драконы: Защитники Олуха / Dragons: Defenders of Berk [S02x01-14 из 20] (2013) WEB-DLRip | D

149 | 143

4.41 ГБ

В этой теме нет новых непрочитанных сообщений. Драконы: Защитники Олуха / Dragons: Defenders of Berk [S02] (2013) WEB-DL 1080p | D

220 | 84

17.87 ГБ




Вы не можете начинать темы
Вы не можете отвечать на сообщения
Вы не можете редактировать свои сообщения
Вы не можете удалять свои сообщения
Вы не можете добавлять вложения

Перейти:  
Для Мосгорсуда, Роскомнадзора и рекламодателей: mosgorsud-torrent[собачка]yandex.ru
 Вход
ppkBB3cker v.2 © 2008-2014 @ PPK
[ Time : 0.023s | 15 Queries | GZIP : Off ]

Торрент трекер RUTOR.IN, Не можете зайти на rutor.org? Какой новый адрес рутор? Какое зеркало рутор? Не работает rutor.org и зеркала? Тогда наш торрент специально для вас. Rutor.in неофициальное зеркало rutor. В случае если у Вас заблокирован rutor или вдруг Вы не можете на него зайти, то Вы без труда сможете скачать бесплатно и без рекламы последние новинки кино, игр, сериалов и прочего у нас, на Rutor.in. Не нужно использовать прокси, чтобы зайти на рутор, достаточно воспользоваться нашим ресурсом. Все новые фильмы, игры, сериалы, книги и музыка за 2013 и 2014 годы через торрент бесплатно. Скачивайте фильмы в хорошем качестве, игры для пк, xbox, playstation без регистрации. У нас вы найдете новые Зарубежные сериалы и Русские сериалы 2013, 2014, 2015 годов. Оставайтесь с нами, качайте любимые фильмы, игры, сериалы, книги и музыку.