img image001 image001 image001 image001 image001 image001 image001 image001 image001 image001 image001 image001 image001 image001 image001

Planets Sun Sun Sun
Статистика раздачи
Автор: Nickolas3434 | Размер: 6.07 ГБ | Добавлен: 16 июл 2014
Раздают: 83    Качают: 17
Скачать торрент
Скачать торрент
Описание торрента

СообщениеДобавлено: 16 июл 2014 

Белоснежка и семь гномов / Snow White and the Seven Dwarfs (1937) BDRip 1080p | 60 fps



Год выпуска: 1937
Жанр: Рисованная анимация, мюзикл, фэнтези, мелодрама, семейный
Производство: США
Описание:
Экранизация знаменитой немецкой сказки братьев Гримм о Белоснежке, жившей в замке со злой мачехой-королевой, которая очень гордилась своей красотой. Узнав от волшебного зеркальца, что Белоснежка стала самой прекрасной девушкой на свете, завистница решила погубить прелестную падчерицу. Но бедная девушка не погибла в лесу, а наоборот, встретила там настоящих друзей — забавных семерых гномов: Профессора, Ворчуна, Весельчака, Скромника, Чихоню, Соню и Молчуна…

Режиссер: Уильям Коттрелл, Дэвид Хэнд, Уилфред Джексон, Ларри Мори, Перс Пирс, Бен Шарпстин
Персонажи: Рой Этвелл, Стюарт Бьюкэнэн, Адриана Каселотти, Холл Джонсон Шор, Эдди Коллинз, Пинто Колвиг, Мэрион Дарлингтон, Билли Гилберт, Отис Хэрлан, Люсиль Ла Верн

Продолжительность: 01:23:11
Качество видео: BDRip
Перевод: Полный дубляж, вкл. песни
Язык субтитров: Русский (форс.), Русский (полные), Английский (полные)
Вид субтитров: Вшитые

Видеокодек: MPEG-4 AVC/H.264
Битрейт видео: ~8964 kb/s
Размер кадра: 1456*1080
Аудио 1 Русский: AC3 5.1, 640 kb/s
Аудио 2 Английский: AC3 5.1, 640 kb/s
Сэмпл: Ссылка

Автор рипа: Tiberiumsun69
Перед скачиванием обязательно проверьте Сэмпл на своем оборудовании.

В 2,5 раза больше кадров!
В 2,5 раза плавнее! (59,94 fps)
Приятного просмотра. =)

Общее
Уникальный идентификатор : 236150964023850293267616896723356662194 (0xB1A90573FA8C7C9A9D73EC52F732B9B2)
Полное имя : F:Белоснежка и семь гномов 1080p 60fps.mkv
Формат : Matroska
Версия формата : Version 4 / Version 2
Размер файла : 6,07 Гбайт
Продолжительность : 1 ч. 23 м.
Общий поток : 10,5 Мбит/сек
Название фильма : Snow White and the Seven Dwarfs (1937) BDRemux 1080p
Дата кодирования : UTC 2014-06-26 10:34:12
Программа кодирования : mkvmerge v7.0.0 ('Where We Going') 64bit built on Jun 9 2014 15:16:27
Библиотека кодирования : libebml v1.3.0 + libmatroska v1.4.1
DURATION : 01:23:11.264000000
NUMBER_OF_FRAMES : 155977
NUMBER_OF_BYTES : 399301120
_STATISTICS_WRITING_APP : mkvmerge v7.0.0 ('Where We Going') 64bit built on Jun 9 2014 15:16:27
_STATISTICS_WRITING_DATE_UTC : 2014-06-26 10:34:12
_STATISTICS_TAGS : BPS DURATION NUMBER_OF_FRAMES NUMBER_OF_BYTES

Видео
Идентификатор : 1
Формат : AVC
Формат/Информация : Advanced Video Codec
Профиль формата : High@L4.1
Параметр CABAC формата : Да
Параметр ReFrames формата : 4 кадра
Идентификатор кодека : V_MPEG4/ISO/AVC
Продолжительность : 1 ч. 23 м.
Битрейт : 8964 Кбит/сек
Ширина : 1456 пикселей
Высота : 1080 пикселей
Соотношение сторон : 4:3
Режим частоты кадров : Постоянный
Частота кадров : 59,880 кадров/сек
Частота кадров в оригинале : 59,940 кадров/сек
Цветовое пространство : YUV
Субдискретизация насыщенности : 4:2:0
Битовая глубина : 8 бит
Тип развёртки : Прогрессивная
Бит/(Пиксели*Кадры) : 0.095
Размер потока : 5,21 Гбайт (86%)
Библиотека кодирования : x264 core 130 r2273 b3065e6
Настройки программы : cabac=1 / ref=4 / deblock=1:-1:-1 / analyse=0x3:0 / me=umh / subme=9 / psy=1 / psy_rd=1.00:0.10 / mixed_ref=1 / me_range=24 / chroma_me=0 / trellis=1 / 8x8dct=1 / cqm=0 / deadzone=21,11 / fast_pskip=0 / chroma_qp_offset=-3 / threads=12 / lookahead_threads=1 / sliced_threads=0 / nr=0 / decimate=0 / interlaced=0 / bluray_compat=0 / constrained_intra=0 / bframes=5 / b_pyramid=2 / b_adapt=2 / b_bias=0 / direct=1 / weightb=1 / open_gop=0 / weightp=2 / keyint=599 / keyint_min=59 / scenecut=40 / intra_refresh=0 / rc=crf / mbtree=0 / crf=18.0 / qcomp=0.60 / qpmin=0 / qpmax=69 / qpstep=4 / ip_ratio=1.40 / pb_ratio=1.30 / aq=1:0.90
Язык : English
Default : Да
Forced : Нет
DURATION : 01:23:11.125000000
NUMBER_OF_FRAMES : 299168
NUMBER_OF_BYTES : 5719409719
_STATISTICS_WRITING_APP : mkvmerge v7.0.0 ('Where We Going') 64bit built on Jun 9 2014 15:16:27
_STATISTICS_WRITING_DATE_UTC : 2014-06-26 10:34:12
_STATISTICS_TAGS : BPS DURATION NUMBER_OF_FRAMES NUMBER_OF_BYTES

Аудио #1
Идентификатор : 2
Формат : AC-3
Формат/Информация : Audio Coding 3
Расширение режима : CM (complete main)
Параметр Endianness формата : Big
Идентификатор кодека : A_AC3
Продолжительность : 1 ч. 23 м.
Вид битрейта : Постоянный
Битрейт : 640 Кбит/сек
Каналы : 6 каналов
Расположение каналов : Front: L C R, Side: L R, LFE
Частота : 48,0 КГц
Битовая глубина : 16 бит
Метод сжатия : С потерями
Размер потока : 381 Мбайт (6%)
Заголовок : Dub
Язык : Russian
Default : Да
Forced : Нет

Аудио #2
Идентификатор : 6
Формат : AC-3
Формат/Информация : Audio Coding 3
Расширение режима : CM (complete main)
Параметр Endianness формата : Big
Идентификатор кодека : A_AC3
Продолжительность : 1 ч. 23 м.
Вид битрейта : Постоянный
Битрейт : 640 Кбит/сек
Каналы : 6 каналов
Расположение каналов : Front: L C R, Side: L R, LFE
Частота : 48,0 КГц
Битовая глубина : 16 бит
Метод сжатия : С потерями
Размер потока : 381 Мбайт (6%)
Заголовок : Original
Язык : English
Default : Нет
Forced : Нет

Текст #1
Идентификатор : 3
Формат : UTF-8
Идентификатор кодека : S_TEXT/UTF8
Идентификатор кодека/Информация : UTF-8 Plain Text
Заголовок : forced
Язык : Russian
Default : Да
Forced : Нет

Текст #2
Идентификатор : 4
Формат : UTF-8
Идентификатор кодека : S_TEXT/UTF8
Идентификатор кодека/Информация : UTF-8 Plain Text
Заголовок : Full
Язык : Russian
Default : Нет
Forced : Нет

Текст #3
Идентификатор : 5
Формат : UTF-8
Идентификатор кодека : S_TEXT/UTF8
Идентификатор кодека/Информация : UTF-8 Plain Text
Заголовок : Full
Язык : English
Default : Нет
Forced : Нет

Меню
00:00:00.000 : :01. Opening Credits
00:01:22.708 : :02. Once Upon a Time
00:02:11.965 : :03. The Magic Mirror
00:03:35.507 : :04. "I'm Wishing"
00:05:25.825 : :05. The Prince ("One Song")
00:07:00.045 : :06. The Queen's Evil Plan
00:09:11.426 : :07. Flight Through the Forest
00:11:34.736 : :08. "With a Smile and a Song"
00:14:56.979 : :09. The Dwarfs' Cottage
00:17:38.349 : :10. "Whistle While You Work"
00:21:25.284 : :11. "Heigh-Ho"
00:24:09.156 : :12. Snow White Explores Upstairs
00:25:29.820 : :13. The Dwarfs Arrive Home
00:34:55.427 : :14. Snow White Wakes Up
00:42:47.398 : :15. "Bluddle-Uddle-Um-Dum"
00:47:49.408 : :16. Deceived
00:49:15.828 : :17. The Queen Prepares A Disguise
00:52:02.119 : :18. "The Dwarfs' Yodel Song"
00:56:49.448 : :19. "Some Day My Prince Will Come"
00:58:53.321 : :20. Settling Down for the Night
01:02:38.797 : :21. The Poison Apple
01:05:40.937 : :22. The Next Morning
01:08:24.559 : :23. The Old Peddler Woman
01:11:41.297 : :24. The Animals Warn the Dwarfs
01:14:08.903 : :25. The Apple
01:17:42.992 : :26. A Bedside Vigil
01:20:27.614 : :27. Love's First Kiss

Скриншоты:



   Похожие торренты   Торрент   Размер 
В этой теме нет новых непрочитанных сообщений. Белоснежка и семь гномов / Snow White and the Seven Dwarfs (1937) BDRip HEVC 1080p | D

13 | 0

4.41 ГБ

В этой теме нет новых непрочитанных сообщений. Белоснежка и семь гномов / Snow White and the Seven Dwarfs (1937) BDRip 1080p от Freeisland

333 | 18

4.38 ГБ

В этой теме нет новых непрочитанных сообщений. Белоснежка и семь гномов / Snow White and the Seven Dwarfs (1937) BDRip от HELLYWOOD

159 | 13

1.45 ГБ

В этой теме нет новых непрочитанных сообщений. Белоснежка и семь гномов / Snow White and the Seven Dwarfs (1937) BDRip от MediaClub | КПК

249 | 11

375.31 МБ

В этой теме нет новых непрочитанных сообщений. Белоснежка и семь гномов / Snow White and the Seven Dwarfs (1937) BDRip 720p | 60 fps

119 | 16

4.06 ГБ

В этой теме нет новых непрочитанных сообщений. Белоснежка и семь гномов / Snow White and the Seven Dwarfs (1937) BDRip от HQCLUB

98 | 4

1.72 ГБ

В этой теме нет новых непрочитанных сообщений. Белоснежка и семь гномов / Snow White and the Seven Dwarfs (1937) BDRip 720p

17 | 2

4.6 ГБ




Вы не можете начинать темы
Вы не можете отвечать на сообщения
Вы не можете редактировать свои сообщения
Вы не можете удалять свои сообщения
Вы не можете добавлять вложения

Перейти:  
Для Мосгорсуда, Роскомнадзора и рекламодателей: mosgorsud-torrent[собачка]yandex.ru
 Вход
ppkBB3cker v.2 © 2008-2014 @ PPK
[ Time : 0.030s | 16 Queries | GZIP : Off ]

Торрент трекер RUTOR.IN, Не можете зайти на rutor.org? Какой новый адрес рутор? Какое зеркало рутор? Не работает rutor.org и зеркала? Тогда наш торрент специально для вас. Rutor.in неофициальное зеркало rutor. В случае если у Вас заблокирован rutor или вдруг Вы не можете на него зайти, то Вы без труда сможете скачать бесплатно и без рекламы последние новинки кино, игр, сериалов и прочего у нас, на Rutor.in. Не нужно использовать прокси, чтобы зайти на рутор, достаточно воспользоваться нашим ресурсом. Все новые фильмы, игры, сериалы, книги и музыка за 2013 и 2014 годы через торрент бесплатно. Скачивайте фильмы в хорошем качестве, игры для пк, xbox, playstation без регистрации. У нас вы найдете новые Зарубежные сериалы и Русские сериалы 2013, 2014, 2015 годов. Оставайтесь с нами, качайте любимые фильмы, игры, сериалы, книги и музыку.