img image001 image001 image001 image001 image001 image001 image001 image001 image001 image001 image001 image001 image001 image001 image001

Planets Sun Sun Sun
Статистика раздачи
Автор: Nickolas3434 | Размер: 1.57 ГБ | Добавлен: 15 июл 2014
Раздают: 78    Качают: 34
Скачать торрент
Скачать торрент
Описание торрента

СообщениеДобавлено: 15 июл 2014 

Информация о фильме
Название: Аватар: Легенда о Корре (Книга 3 - Перемены.)
Оригинальное название: The Legend of Korra
Год выхода: 2014
Жанр: мультфильм, фэнтези, боевик, приключения, семейный
Режиссер: Хоаким Дос Сантос / Joaquim Dos Santos, Ки Хьюн Рю / Ki Hyun Ryu
В ролях: Джанет Вэрни, Ди Брэдли Бейкер, Дэвид Фаустино, П.Дж. Бирн, Дж.К. Симмонс, Джефф Беннетт, Сейшелл Гэбриел, Дарси Роуз Бернс, Стивен Блум, Логан Уэллс
Роли озвучивали: Тимиркан Сиюхов и Маргарита Щелкунова

О фильме: Мир вступает в новую эру! Гармоническое сближение вызвало сдвиг в энергетическом поле планеты, а Республиканский город спустя недели всё ещё не оправился после битвы Корры и УнаВаату. Весь город зарос и превратился в джунгли, которые новоприбывшие духи считают своим домом. Но не ждут ли наш город ещё какие-то перемены?

Продолжительность: 3 х ~00:22:00 + 1 x ~00:44:00
Перевод: Любительский (двухголосый) [LE-Production]
Субтитры: отсутствуют

Файл
Формат: MKV
Качество: HDTVRip
Видео: 1280 x 720 (16:9), 23.976 fps, AVC (x264), High@L3.0, 2000 kbps avg, 0.091 bit/pixel
Аудио: 48 kHz, AC3, 2 ch, 384 kbps avg

Релиз от: | Семпл

*Отдельная благодарность: DiNaS.

01 - Глоток свежего воздуха (A Breath of Fresh Air)
02 - Перерождение (Rebirth)
03 - Царица царства Земли (The Earth Queen)
04 - В беде (In Harm's Way)
05 - Клан металла (The Metal Clan)
06 - (Old Wounds)
Общее
Полное имя : The.Legend.of.Korra.S03.HDTVRip.le-productionThe.Legend.of.Korra.S03E01-02.HDTVRip.le-production.mkv
Формат : Matroska
Размер файла : 744 Мбайт
Продолжительность : 43 м.
Общий поток : 2386 Кбит/сек
Название фильма : LE-Production
Дата кодирования : UTC 2014-07-02 11:04:13
Программа кодирования : mkvmerge v7.0.0 ('Where We Going') 64bit built on Jun 9 2014 15:16:27
Библиотека кодирования : libebml v1.3.0 + libmatroska v1.4.1

Видео
Идентификатор : 1
Формат : AVC
Формат/Информация : Advanced Video Codec
Профиль формата : High@L3.1
Параметр CABAC формата : Да
Параметр ReFrames формата : 4 кадры
Параметры GOP формата : M=3, N=7
Идентификатор кодека : V_MPEG4/ISO/AVC
Продолжительность : 43 м.
Битрейт : 2000 Кбит/сек
Ширина : 1280 пикс.
Высота : 720 пикс.
Соотношение сторон : 16:9
Частота кадров : 23,976 кадр/сек
Цветовое пространство : YUV
Подвыборка цветности : 4:2:0
Битовая глубина : 8 бит
Тип развёртки : Прогрессивная
Бит/(Пиксели*Кадры) : 0.091
Размер потока : 610 Мбайт (82%)
Библиотека кодирования : x264 core 130 r2273 b3065e6
Настройки программы : cabac=1 / ref=1 / deblock=1:-1:-1 / analyse=0x3:0x113 / me=hex / subme=2 / psy=1 / psy_rd=1.00:0.10 / mixed_ref=0 / me_range=16 / chroma_me=1 / trellis=0 / 8x8dct=1 / cqm=0 / deadzone=21,11 / fast_pskip=1 / chroma_qp_offset=0 / threads=12 / lookahead_threads=4 / sliced_threads=0 / nr=0 / decimate=1 / interlaced=0 / bluray_compat=0 / constrained_intra=0 / bframes=3 / b_pyramid=2 / b_adapt=1 / b_bias=0 / direct=3 / weightb=1 / open_gop=0 / weightp=1 / keyint=250 / keyint_min=23 / scenecut=40 / intra_refresh=0 / rc_lookahead=10 / rc=2pass / mbtree=1 / bitrate=2000 / ratetol=1.0 / qcomp=0.60 / qpmin=0 / qpmax=69 / qpstep=4 / cplxblur=20.0 / qblur=0.5 / ip_ratio=1.40 / aq=1:1.00

Аудио
Идентификатор : 2
Формат : AC-3
Формат/Информация : Audio Coding 3
Расширение режима : CM (complete main)
Идентификатор кодека : A_AC3
Продолжительность : 43 м.
Вид битрейта : Постоянный
Битрейт : 384 Кбит/сек
Канал(ы) : 2 канала(ов)
Расположение каналов : Front: L R
Частота : 48,0 КГц
Битовая глубина : 16 бит
Метод сжатия : С потерями
Размер потока : 120 Мбайт (16%)
Заголовок : Тимиркан Сиюхов и Маргарита Щелкунова (LE-Production )






   Похожие торренты   Торрент   Размер 
В этой теме нет новых непрочитанных сообщений. Аватар: Легенда о Корре / The Legend of Korra [03х01-08 из 12] (2014) HDTVRip 720p | LE-Production

206 | 92

2.41 ГБ

В этой теме нет новых непрочитанных сообщений. Аватар: Легенда о Корре / The Legend of Korra [03х01-05 из 12] (2014) HDTVRip 720p | LE-Production

109 | 84

1.43 ГБ

В этой теме нет новых непрочитанных сообщений. Аватар: Легенда о Корре / The Legend of Korra [03х01-03 из 12] (2014) HDTVRip 720p | LE-Production

105 | 19

987.65 МБ

В этой теме нет новых непрочитанных сообщений. Аватар: Легенда о Корре / The Legend of Korra [03х01-04 из 12] (2014) HDTVRip 720p | LE-Production

158 | 75

1.27 ГБ

В этой теме нет новых непрочитанных сообщений. Аватар: Легенда о Корре / The Legend of Korra [03х01-07 из 12] (2014) HDTVRip 720p | LE-Production

136 | 111

2.01 ГБ

В этой теме нет новых непрочитанных сообщений. Аватар: Легенда о Корре / The Legend of Korra [03х01-06 из 12] (2014) HDTVRip 720p | LE-Production

66 | 60

1.74 ГБ

В этой теме нет новых непрочитанных сообщений. Аватар: Легенда о Корре / The Legend of Korra [03х01-09 из 13] (2014) WEBRip 720p | LE-Production

141 | 183

4.09 ГБ




Вы не можете начинать темы
Вы не можете отвечать на сообщения
Вы не можете редактировать свои сообщения
Вы не можете удалять свои сообщения
Вы не можете добавлять вложения

Перейти:  
Для Мосгорсуда, Роскомнадзора и рекламодателей: mosgorsud-torrent[собачка]yandex.ru
 Вход
ppkBB3cker v.2 © 2008-2014 @ PPK
[ Time : 0.043s | 16 Queries | GZIP : Off ]

cron