img image001 image001 image001 image001 image001 image001 image001 image001 image001 image001 image001 image001 image001 image001 image001

Planets Sun Sun Sun
Статистика раздачи
Автор: Nickolas3434 | Размер: 2.15 ГБ | Добавлен: 19 июл 2014
Раздают: 228    Качают: 27
Скачать торрент
Скачать торрент
Описание торрента

СообщениеДобавлено: 19 июл 2014 

Информация о фильме
Название: Динозавр
Оригинальное название: Dinosaur
Год выхода: 2000
Жанр: мультфильм, триллер, приключения, семейный
Режиссер: Эрик Лейтон, Ральф Зондаг
В ролях: Д.Б. Суини, Элфри Вудард, Осси Дэвис, Хайден Панеттьери, Макс Каселла, Джоан Плаурайт, Джулианна Маргулис

О фильме:
Трогательная история динозавра-игуанодона по имени Аладар, который воспитывался на острове в семье лемуров. Когда опустошительный метеоритный ливень разрушает их дома, Аладар вместе с лемурами и странствующими динозаврами отправился на поиски нового места жительства. Лицом к лицу с такими опасностями, как внезапные оползни и атакующие циранотавры, Аладар и его новые друзья должны преодолеть невероятные трудности до того, как обретут новую родину в прекрасной долине.
Страна: США
Студия: Walt Disney Pictures
Продолжительность: 01:22:05
Перевод: Дублированный

Файл
Кодек: h264
Качество: BDRip 720 от SuperMin
Видео: 1280x694 (1,85:1), 3300 kbps, 23.976 fps
Звук: Русский (AC-3, 6ch, 448kbps)

General
Unique ID : 193012122703455282416354012922443652728 (0x9134C85D5A0447CC8526F78C95E6DE78)
Complete name : F:МУЛЬТЫДИНОЗАВР.mkv
Format : Matroska
Format version : Version 4 / Version 2
File size : 2.15 GiB
Duration : 1h 22mn
Overall bit rate : 3 745 Kbps
Encoded date : UTC 2014-07-18 09:26:30
Writing application : mkvmerge v6.9.1 ('Blue Panther') 64bit built on Apr 18 2014 18:23:38
Writing library : libebml v1.3.0 + libmatroska v1.4.1

Video
ID : 1
Format : AVC
Format/Info : Advanced Video Codec
Format profile : High@L4.1
Format settings, CABAC : Yes
Format settings, ReFrames : 9 frames
Codec ID : V_MPEG4/ISO/AVC
Duration : 1h 22mn
Bit rate : 3 300 Kbps
Width : 1 280 pixels
Height : 694 pixels
Display aspect ratio : 1.85:1
Original display aspect ratio : 1.85:1
Frame rate mode : Constant
Frame rate : 23.976 fps
Color space : YUV
Chroma subsampling : 4:2:0
Bit depth : 8 bits
Scan type : Progressive
Bits/(Pixel*Frame) : 0.155
Stream size : 1.85 GiB (86%)
Writing library : x264 core 142 r2409kMod d6b4e63
Encoding settings : cabac=1 / ref=9 / deblock=1:0:0 / analyse=0x3:0x133 / me=umh / subme=10 / psy=1 / fade_compensate=0.00 / psy_rd=1.00:0.00 / mixed_ref=1 / me_range=32 / chroma_me=1 / trellis=2 / 8x8dct=1 / cqm=0 / deadzone=21,11 / fast_pskip=0 / chroma_qp_offset=-2 / threads=2 / lookahead_threads=1 / sliced_threads=0 / nr=0 / decimate=1 / interlaced=0 / bluray_compat=0 / constrained_intra=0 / fgo=0 / bframes=5 / b_pyramid=2 / b_adapt=1 / b_bias=0 / direct=3 / weightb=1 / open_gop=0 / weightp=2 / keyint=250 / keyint_min=25 / scenecut=40 / intra_refresh=0 / rc_lookahead=60 / rc=2pass / mbtree=1 / bitrate=3300 / ratetol=1.0 / qcomp=0.60 / qpmin=0 / qpmax=69 / qpstep=4 / cplxblur=20.0 / qblur=0.5 / ip_ratio=1.40 / aq=1:1.00
Default : Yes
Forced : No

Audio
ID : 2
Format : AC-3
Format/Info : Audio Coding 3
Mode extension : CM (complete main)
Format settings, Endianness : Big
Codec ID : A_AC3
Duration : 1h 22mn
Bit rate mode : Constant
Bit rate : 448 Kbps
Channel count : 6 channels
Channel positions : Front: L C R, Side: L R, LFE
Sampling rate : 48.0 KHz
Bit depth : 16 bits
Compression mode : Lossy
Stream size : 263 MiB (12%)
Default : Yes


Релиз от: SuperMin



   Похожие торренты   Торрент   Размер 
В этой теме нет новых непрочитанных сообщений. Динозавр / Dinosaur (2000) BDRip-AVC | D, P2

70 | 16

1.46 ГБ

В этой теме нет новых непрочитанных сообщений. Динозавр / Dinosaur (2000) BDRip 1080p

484 | 25

4.37 ГБ

В этой теме нет новых непрочитанных сообщений. Динозавр / Dinosaur (2000) BDRip от Generalfilm | КПК | D

682 | 9

280.68 МБ

В этой теме нет новых непрочитанных сообщений. Динозавр / Dinosaur (2000) BDRip 720p от PskovLine

4 | 3

4.22 ГБ

В этой теме нет новых непрочитанных сообщений. Динозавр / Dinosaur (2000) Blu-Ray 1080p | D

89 | 5

16.94 ГБ

В этой теме нет новых непрочитанных сообщений. Динозавр / Dinosaur (2000) HDRip | D

162 | 20

747.17 МБ

В этой теме нет новых непрочитанных сообщений. Динозавр / Dinosaur (2000) DVD5 | сжатый

2 | 3

4.34 ГБ




Вы не можете начинать темы
Вы не можете отвечать на сообщения
Вы не можете редактировать свои сообщения
Вы не можете удалять свои сообщения
Вы не можете добавлять вложения

Перейти:  
Для Мосгорсуда, Роскомнадзора и рекламодателей: mosgorsud-torrent[собачка]yandex.ru
 Вход
ppkBB3cker v.2 © 2008-2014 @ PPK
[ Time : 0.331s | 15 Queries | GZIP : Off ]

Торрент трекер RUTOR.IN, Не можете зайти на rutor.org? Какой новый адрес рутор? Какое зеркало рутор? Не работает rutor.org и зеркала? Тогда наш торрент специально для вас. Rutor.in неофициальное зеркало rutor. В случае если у Вас заблокирован rutor или вдруг Вы не можете на него зайти, то Вы без труда сможете скачать бесплатно и без рекламы последние новинки кино, игр, сериалов и прочего у нас, на Rutor.in. Не нужно использовать прокси, чтобы зайти на рутор, достаточно воспользоваться нашим ресурсом. Все новые фильмы, игры, сериалы, книги и музыка за 2013 и 2014 годы через торрент бесплатно. Скачивайте фильмы в хорошем качестве, игры для пк, xbox, playstation без регистрации. У нас вы найдете новые Зарубежные сериалы и Русские сериалы 2013, 2014, 2015 годов. Оставайтесь с нами, качайте любимые фильмы, игры, сериалы, книги и музыку.