img image001 image001 image001 image001 image001 image001 image001 image001 image001 image001 image001 image001 image001 image001 image001

Planets Sun Sun Sun
Статистика раздачи
Автор: Nickolas3434 | Размер: 6.32 ГБ | Добавлен: 22 июл 2014
Раздают: 59    Качают: 43
Скачать торрент
Скачать торрент
Описание торрента

СообщениеДобавлено: 22 июл 2014 

Информация о фильме
Название: Будни аэропорта
Год выхода: 2014
Жанр: Мультсериал, познавательный, детский

О фильме:
Влиться в новый коллектив и найти себе там друзей бывает совсем не просто. С этим столкнулся наш главный герой - юный самолётик Винки, который покинул родной дом, чтобы впервые начать самостоятельно работать. Он прибывает в большой аэропорт Манго, где сразу сталкивается с проблемами новичка. Здесь всё такое незнакомое и непривычное, что поначалу Винки не смог даже толком приземлится на взлётную полосу. Более того, другие самолёты оказались не очень приветливы, однако нашлись и те, кто был рад помочь новому сотруднику и вскоре у Винки появились первые друзья.
Страна: Россия
Студия: Теремок ТВ
Продолжительность: ~ 00:08:00 серия
Перевод: Не требуется

Файл
Кодек: h.264 / AC3
Качество: WEBRip 720p
Видео: AVC, 1280x720 (16:9), 25.000 fps, 2 455 Kbps (0.107 bit/pixel)
Звук: AC-3, 48.0 KHz, 2 ch, 192 Kbps, CBR (Russian)

General
Unique ID : 201875460080234184115390246202186607086 (0x97DFCCA2E49065D7A3DE5BAD4F3329EE)
Complete name : /Будни аэропорта.2014.720p.x264.-merci/01. Винки прибывает!.720p.x264.-merci.mkv
Format : Matroska
Format version : Version 2
File size : 163 MiB
Duration : 8mn 35s
Overall bit rate : 2 649 Kbps
Movie name : Будни аэропорта / 2014 / мультсериал
Encoded date : UTC 2014-05-07 03:09:14
Writing application : mkvmerge v5.8.0 ('No Sleep / Pillow') built on Sep 2 2012 15:37:04
Writing library : libebml v1.2.3 + libmatroska v1.3.0

Video
ID : 1
Format : AVC
Format/Info : Advanced Video Codec
Format profile : High@L3.1
Format settings, CABAC : Yes
Format settings, ReFrames : 4 frames
Codec ID : V_MPEG4/ISO/AVC
Duration : 8mn 35s
Bit rate : 2 455 Kbps
Width : 1 280 pixels
Height : 720 pixels
Display aspect ratio : 16:9
Frame rate : 25.000 fps
Color space : YUV
Chroma subsampling : 4:2:0
Bit depth : 8 bits
Scan type : Progressive
Bits/(Pixel*Frame) : 0.107
Stream size : 148 MiB (91%)
Title : 01. Винки прибывает!.720p.x264.-merci
Writing library : x264 core 125 r2208 d9d2288
Encoding settings : cabac=1 / ref=2 / deblock=1:-2:-2 / analyse=0x3:0x133 / me=umh / subme=9 / psy=1 / psy_rd=1.15:0.25 / mixed_ref=1 / me_range=24 / chroma_me=1 / trellis=2 / 8x8dct=1 / cqm=0 / deadzone=21,11 / fast_pskip=0 / chroma_qp_offset=-4 / threads=6 / lookahead_threads=1 / sliced_threads=0 / nr=0 / decimate=0 / interlaced=0 / bluray_compat=0 / constrained_intra=0 / bframes=2 / b_pyramid=2 / b_adapt=2 / b_bias=0 / direct=3 / weightb=1 / open_gop=0 / weightp=2 / keyint=250 / keyint_min=25 / scenecut=40 / intra_refresh=0 / rc=2pass / mbtree=0 / bitrate=2455 / ratetol=1.0 / qcomp=0.75 / qpmin=0 / qpmax=69 / qpstep=4 / cplxblur=20.0 / qblur=0.5 / ip_ratio=1.40 / pb_ratio=1.30 / aq=2:0.80
Language : Russian
Default : Yes
Forced : No
Color primaries : BT.709-5, BT.1361, IEC 61966-2-4, SMPTE RP177
Transfer characteristics : BT.709-5, BT.1361
Matrix coefficients : BT.709-5, BT.1361, IEC 61966-2-4 709, SMPTE RP177

Audio
ID : 2
Format : AC-3
Format/Info : Audio Coding 3
Mode extension : CM (complete main)
Format settings, Endianness : Big
Codec ID : A_AC3
Duration : 8mn 35s
Bit rate mode : Constant
Bit rate : 192 Kbps
Channel(s) : 2 channels
Channel positions : Front: L R
Sampling rate : 48.0 KHz
Bit depth : 16 bits
Compression mode : Lossy
Stream size : 11.8 MiB (7%)
Language : Russian
Default : Yes
Forced : No



   Похожие торренты   Торрент   Размер 
В этой теме нет новых непрочитанных сообщений. Будни аэропорта [01-33] (2014) WEBRip 720p

77 | 35

5.2 ГБ

В этой теме нет новых непрочитанных сообщений. Будни аэропорта [01-49] (2014) WEBRip 720p

43 | 22

7.75 ГБ

В этой теме нет новых непрочитанных сообщений. Будни аэропорта [01-31] (2014) WEBRip 720p

112 | 98

4.89 ГБ

В этой теме нет новых непрочитанных сообщений. Будни аэропорта [01-46] (2014) WEBRip 720p

38 | 20

7.27 ГБ

В этой теме нет новых непрочитанных сообщений. Будни аэропорта [01-41] (2014) WEBRip 720p

24 | 17

6.48 ГБ

В этой теме нет новых непрочитанных сообщений. Будни аэропорта [01-78] (2014) WEBRip 720p

72 | 19

12.36 ГБ

В этой теме нет новых непрочитанных сообщений. Будни аэропорта [01-72] (2014) WEBRip 720p

61 | 10

11.4 ГБ




Вы не можете начинать темы
Вы не можете отвечать на сообщения
Вы не можете редактировать свои сообщения
Вы не можете удалять свои сообщения
Вы не можете добавлять вложения

Перейти:  
Для Мосгорсуда, Роскомнадзора и рекламодателей: mosgorsud-torrent[собачка]yandex.ru
 Вход
ppkBB3cker v.2 © 2008-2014 @ PPK
[ Time : 0.054s | 15 Queries | GZIP : Off ]

Торрент трекер RUTOR.IN, Не можете зайти на rutor.org? Какой новый адрес рутор? Какое зеркало рутор? Не работает rutor.org и зеркала? Тогда наш торрент специально для вас. Rutor.in неофициальное зеркало rutor. В случае если у Вас заблокирован rutor или вдруг Вы не можете на него зайти, то Вы без труда сможете скачать бесплатно и без рекламы последние новинки кино, игр, сериалов и прочего у нас, на Rutor.in. Не нужно использовать прокси, чтобы зайти на рутор, достаточно воспользоваться нашим ресурсом. Все новые фильмы, игры, сериалы, книги и музыка за 2013 и 2014 годы через торрент бесплатно. Скачивайте фильмы в хорошем качестве, игры для пк, xbox, playstation без регистрации. У нас вы найдете новые Зарубежные сериалы и Русские сериалы 2013, 2014, 2015 годов. Оставайтесь с нами, качайте любимые фильмы, игры, сериалы, книги и музыку.