img image001 image001 image001 image001 image001 image001 image001 image001 image001 image001 image001 image001 image001 image001 image001

Planets Sun Sun Sun
Статистика раздачи
Автор: Nickolas3434 | Размер: 9.7 ГБ | Добавлен: 22 июл 2014
Раздают: 90    Качают: 89
Скачать торрент
Скачать торрент
Описание торрента

СообщениеДобавлено: 22 июл 2014 

Информация о фильме
Название: Доктор Плюшева
Оригинальное название: Doc McStuffins
Год выхода: 2013-2014
Жанр: мультфильм
Режиссер: Нортон Вирген, Мария Эстрада, Сауль Эндрю Блинкофф
В ролях: Джейден Беттс, Киара Мухаммад, Лара Джилл Миллер, Робби Рист, Лоретта Дивайн, Кэйтлин Кармайкл, Джесс Харнелл, Кайли Андерсон, Гари Энтони Уильямс, Кимберли Брукс

О фильме:
Хорошим врачом может быть даже ребенок. Главное — желание помочь близким. В этом уверена 6-летняя героиня мультсериала Дотти, зовущая себя Доктор Плюшева, которая просто обожает свои игрушки. Стоит ей только поднести к ним стетоскоп, и они оживают!

Теперь плюшевых зверей можно спросить о самочувствии, измерить им температуру и выписать рецепты, как настоящим пациентам. Вместе с помощниками — драконом Стаффи, овечкой Лэмми и бегемотиком Хэлли — Дотти каждый день учится соблюдать гигиену, правильно питаться и укреплять здоровье.

01. Мобильная доктор Плюшева + Яблоко от яблони (Doc McStuffins Goes McMobile + Chip Off the Ol' Box)
02. Крутая рука крутого парня + Овечка и джем (Awesome Guy's Awesome Arm + Lamb in a Jam)
03. Диагноз неясен + Сломанный хвост Бронти (Diagnosis Not Even Close-Is + Bronty's Twisted Tail)
04. Фея Фрида вновь обретает крылья + Сказка о двух драконах (Frida Fairy Flies Again + A Tale of Two Dragons)
05. Розовый снеговик + Мы все больны футболом (Think Pink + You Foose, You Lose)
06. Луау для Дэйлани + Кенгуру-каратисты (Leilani's Lu'au + Karate Kangaroos)
07. Док спешит на помощь + Берегите голову (Doc to the Rescue + Don't Knock the Noggin)
08. Диско-Дейзи + Братья-планёры (Disco Dress Up Daisy + The Glider Brothers)
09. Кирби и король + Мартышка, прочисть нос! (Kirby and the King + Bubble Monkey, Blow Your Nose!)
10. Профессор Блин + Смейтесь до упаду (Professor Pancake + You Crack Me Up)
11. Рождество с Плюшевыми (A Very McStuffins Christmas)
12. На приёме у доктора + Крошка Яйцо перегрелся (The Doctor Will See You Now + L'il Egghead Feels the Heat)
13. Ночёвка в гостях + Самый чудесный гепард на свете (The Big Sleepover + No Sweetah Cheetah)
14. Зазнайка Хэлли + Персик, прими ванну! (Big Head Hallie + Peaches Pie, Take a Bath!)
15. Неземная Селест + Беги док, беги! (Celestial Celeste + Run, Doc, Run!)
16. Фееричный узел + Рози - спасатель (A Fairy Big Knot + Rosie the Rescuer)
17. Ну и ну! Это же Лесной Уилл! + Великолепная южанка Сэл (Crikey! It's Wildlife Will! + Rootin' Tootin' Southwest Sal)

19. Большой шторм + Шприци-Мици (The Big Storm + Spritzy Mitzi)
20.Папина любимая игрушка + Друг Чилли (Dads Favorite Toy + Chilly and the Dude)
21. Сэр Кирби и храбрая принцесса + Брызгучий Змей Сэм (Sir Kirby and the Plucky Princess + Serpent Sam Makes a Splash)

Официальный сайт

Страна: США, Ирландия
Студия: Walt Disney
Продолжительность: ~ 00:24:00 серия
Перевод: Дублированный

Файл
Кодек: h.264 / AC3
Качество: WEB-DL 720p
Видео: AVC, 1280x720 (16:9), 23.976 fps, 2 452 Kbps (0.111 bit/pixel)
Звук:
Аудио #1: AC-3, 48.0 KHz, 2 ch, 192 Kbps, CBR (Russian)
Аудио #2: AC-3, 48.0 KHz, 2 ch, 192 Kbps, CBR (English)

General
Unique ID : 174218132629742378985470877298982393626 (0x8311311CFED2EB54A2FBD26610A8171A)
Complete name : /Доктор Плюшева.Сезон-2.720p.WEB-DL.x264.-merci/01. Мобильная доктор Плюшева.720p.WEB-DL.x264.mkv
Format : Matroska
Format version : Version 2
File size : 497 MiB
Duration : 23mn 59s
Overall bit rate : 2 894 Kbps
Movie name : Доктор Плюшева / Doc McStuffins / Сезон: 2 / by - merci -
Encoded date : UTC 2014-06-11 02:47:11
Writing application : mkvmerge v5.8.0 ('No Sleep / Pillow') built on Sep 2 2012 15:37:04
Writing library : libebml v1.2.3 + libmatroska v1.3.0

Video
ID : 1
Format : AVC
Format/Info : Advanced Video Codec
Format profile : High@L3.1
Format settings, CABAC : Yes
Format settings, ReFrames : 4 frames
Codec ID : V_MPEG4/ISO/AVC
Duration : 23mn 59s
Bit rate : 2 452 Kbps
Width : 1 280 pixels
Height : 720 pixels
Display aspect ratio : 16:9
Frame rate : 23.976 fps
Color space : YUV
Chroma subsampling : 4:2:0
Bit depth : 8 bits
Scan type : Progressive
Bits/(Pixel*Frame) : 0.111
Stream size : 421 MiB (85%)
Title : 01. Мобильная доктор Плюшева.720p.WEB-DL.x264.-merci
Language : English
Default : Yes
Forced : No
Color primaries : BT.709-5, BT.1361, IEC 61966-2-4, SMPTE RP177
Transfer characteristics : BT.709-5, BT.1361
Matrix coefficients : BT.709-5, BT.1361, IEC 61966-2-4 709, SMPTE RP177

Audio #1
ID : 2
Format : AC-3
Format/Info : Audio Coding 3
Mode extension : CM (complete main)
Format settings, Endianness : Big
Codec ID : A_AC3
Duration : 23mn 59s
Bit rate mode : Constant
Bit rate : 192 Kbps
Channel(s) : 2 channels
Channel positions : Front: L R
Sampling rate : 48.0 KHz
Bit depth : 16 bits
Compression mode : Lossy
Stream size : 33.0 MiB (7%)
Title : Dub
Language : Russian
Default : Yes
Forced : No

Audio #2
ID : 3
Format : AC-3
Format/Info : Audio Coding 3
Mode extension : CM (complete main)
Format settings, Endianness : Big
Codec ID : A_AC3
Duration : 23mn 59s
Bit rate mode : Constant
Bit rate : 192 Kbps
Channel(s) : 2 channels
Channel positions : Front: L R
Sampling rate : 48.0 KHz
Bit depth : 16 bits
Compression mode : Lossy
Delay relative to video : 31ms
Stream size : 33.0 MiB (7%)
Title : eng
Language : English
Default : No
Forced : No
Раздача ведётся путём добавления новых серий; при каждом добавлении создаётся новый торрент. Чтобы начать докачку новой серии, пользователям необходимо сделать следующее:
(1) остановить скачивание,
(2) удалить старый торрент у себя из клиента (старые серии удалять не надо),
(3) скачать новый торрент и запустить его у себя в клиенте вместо старого, при этом указать клиенту путь в старую папку куда и должно происходить скачивание новых серий.

Ваш клиент при этом должен произвести хеширование (проверку) старой папки (если не производит сам - помогите ему сделать это), и будет докачивать только те серии которых у вас ещё нет. Старые серии при этом не удаляются, а продолжают раздаваться!

Eсли вы уже удалили старые серии, то предотвратить повторную закачку старых серий можно, отжав галочку в соответствующих местах при запуске нового торрента. По возможности, желательно не удалять старые серии как можно дольше чтобы релизёр не столько продолжал раздавать старые серии, а смог сконцентрироваться на новых.



   Похожие торренты   Торрент   Размер 
В этой теме нет новых непрочитанных сообщений. Доктор Плюшева / Doc McStuffins [02x01-15] (2013-2014) WEB-DL | D

327 | 109

4.02 ГБ

В этой теме нет новых непрочитанных сообщений. Доктор Плюшева / Doc McStuffins [02x01-18] (2013-2014) WEB-DL | D

226 | 140

4.83 ГБ

В этой теме нет новых непрочитанных сообщений. Доктор Плюшева / Doc McStuffins [02x01-20] (2013-2014) WEB-DL | D

159 | 95

5.37 ГБ

В этой теме нет новых непрочитанных сообщений. Доктор Плюшева / Doc McStuffins [01-02x01-15] (2012-2013) 3xDVD9 от New-Team | D | Лицензия

11 | 27

19.37 ГБ

В этой теме нет новых непрочитанных сообщений. Доктор Плюшева / Doc McStuffins [01-02x01-20] (2012-2013) 4xDVD9 от New-Team | D | Лицензия

73 | 12

24.96 ГБ

В этой теме нет новых непрочитанных сообщений. Доктор Плюшева / Doc McStuffins [02-17, 19-21] (2013 - 2014) WEB-DLRip от New-Team | D

43 | 20

6.99 ГБ

В этой теме нет новых непрочитанных сообщений. Доктор Плюшева / Doc McStuffins [02х01-26] (2013 - 2014) SATRip от New-Team | D

71 | 21

6.85 ГБ




Вы не можете начинать темы
Вы не можете отвечать на сообщения
Вы не можете редактировать свои сообщения
Вы не можете удалять свои сообщения
Вы не можете добавлять вложения

Перейти:  
Для Мосгорсуда, Роскомнадзора и рекламодателей: mosgorsud-torrent[собачка]yandex.ru
 Вход
ppkBB3cker v.2 © 2008-2014 @ PPK
[ Time : 0.233s | 15 Queries | GZIP : Off ]

Торрент трекер RUTOR.IN, Не можете зайти на rutor.org? Какой новый адрес рутор? Какое зеркало рутор? Не работает rutor.org и зеркала? Тогда наш торрент специально для вас. Rutor.in неофициальное зеркало rutor. В случае если у Вас заблокирован rutor или вдруг Вы не можете на него зайти, то Вы без труда сможете скачать бесплатно и без рекламы последние новинки кино, игр, сериалов и прочего у нас, на Rutor.in. Не нужно использовать прокси, чтобы зайти на рутор, достаточно воспользоваться нашим ресурсом. Все новые фильмы, игры, сериалы, книги и музыка за 2013 и 2014 годы через торрент бесплатно. Скачивайте фильмы в хорошем качестве, игры для пк, xbox, playstation без регистрации. У нас вы найдете новые Зарубежные сериалы и Русские сериалы 2013, 2014, 2015 годов. Оставайтесь с нами, качайте любимые фильмы, игры, сериалы, книги и музыку.