img image001 image001 image001 image001 image001 image001 image001 image001 image001 image001 image001 image001 image001 image001 image001

Planets Sun Sun Sun
Статистика раздачи
Автор: Nickolas3434 | Размер: 4.11 ГБ | Добавлен: 22 июл 2014
Раздают: 543    Качают: 22
Скачать торрент
Скачать торрент
Описание торрента

СообщениеДобавлено: 22 июл 2014 

Информация о фильме
Название: Проект Альфа
Оригинальное название: Appleseed Alpha
Год выхода: 2014
Жанр: аниме, мультфильм, приключения
Режиссер: Синдзи Арамаки
В ролях: Люси Кристиан, Дэвид Матранга, Элизабет Бунч, Вендель Калверт, Адам Гиббс, Крис Хатчинсон, Брина Паленсия, Джош Шелтз

О фильме: Действие посвящено боевой биографии Дюнан и Бриарея до попадания в Олимп.



Выпущено: Япония, США
Продолжительность: 01:33:15
Озвучивание: Любительское (одноголосое) [Xixidok]

Файл
Формат: MKV
Качество: BDRip 720p
Видео: 5477 kb/s, 1280x720
Аудио: Russian: MP3, 192 kb/s (2 ch) / English: AC3, 640 kb/s (6 ch)
Субтитры: Russian





Format : Matroska
Format version : Version 4 / Version 2
File size : 4.11 GiB
Duration : 1h 33mn
Overall bit rate : 6 311 Kbps
Movie name : Rip by 03nazar03
Encoded date : UTC 2014-07-21 06:44:13
Writing application : mkvmerge v6.1.0 ('Old Devil') built on Mar 4 2013 09:10:42
Writing library : libebml v1.3.0 + libmatroska v1.4.0

Video
ID : 1
Format : AVC
Format/Info : Advanced Video Codec
Format profile : High@L4.1
Format settings, CABAC : Yes
Format settings, ReFrames : 11 frames
Codec ID : V_MPEG4/ISO/AVC
Duration : 1h 33mn
Bit rate : 5 477 Kbps
Width : 1 280 pixels
Height : 720 pixels
Display aspect ratio : 16:9
Frame rate : 23.976 fps
Color space : YUV
Chroma subsampling : 4:2:0
Bit depth : 8 bits
Scan type : Progressive
Bits/(Pixel*Frame) : 0.248
Stream size : 3.49 GiB (85%)
Writing library : x264 core 130 r2273 b3065e6
Encoding settings : cabac=1 / ref=11 / deblock=1:-3:-3 / analyse=0x3:0x133 / me=umh / subme=11 / psy=1 / psy_rd=1.00:0.20 / mixed_ref=1 / me_range=32 / chroma_me=1 / trellis=2 / 8x8dct=1 / cqm=0 / deadzone=21,11 / fast_pskip=0 / chroma_qp_offset=-3 / threads=12 / lookahead_threads=2 / sliced_threads=0 / nr=0 / decimate=0 / interlaced=0 / bluray_compat=0 / constrained_intra=0 / bframes=9 / b_pyramid=2 / b_adapt=2 / b_bias=0 / direct=3 / weightb=1 / open_gop=0 / weightp=2 / keyint=250 / keyint_min=23 / scenecut=40 / intra_refresh=0 / rc_lookahead=60 / rc=2pass / mbtree=1 / bitrate=5477 / ratetol=1.0 / qcomp=0.60 / qpmin=0 / qpmax=69 / qpstep=4 / cplxblur=20.0 / qblur=0.5 / ip_ratio=1.40 / aq=1:1.00
Language : English
Default : Yes
Forced : No

Audio #1
ID : 2
Format : MPEG Audio
Format version : Version 1
Format profile : Layer 3
Codec ID : A_MPEG/L3
Codec ID/Hint : MP3
Duration : 1h 33mn
Bit rate mode : Constant
Bit rate : 192 Kbps
Channel(s) : 2 channels
Sampling rate : 44.1 KHz
Compression mode : Lossy
Stream size : 128 MiB (3%)
Language : Russian
Default : Yes
Forced : No

Audio #2
ID : 3
Format : AC-3
Format/Info : Audio Coding 3
Mode extension : CM (complete main)
Format settings, Endianness : Big
Codec ID : A_AC3
Duration : 1h 33mn
Bit rate mode : Constant
Bit rate : 640 Kbps
Channel(s) : 6 channels
Channel positions : Front: L C R, Side: L R, LFE
Sampling rate : 48.0 KHz
Bit depth : 16 bits
Compression mode : Lossy
Stream size : 427 MiB (10%)
Language : English
Default : No
Forced : No

Text
ID : 4
Format : UTF-8
Codec ID : S_TEXT/UTF8
Codec ID/Info : UTF-8 Plain Text
Language : Russian
Default : No
Forced : No



   Похожие торренты   Торрент   Размер 
В этой теме нет новых непрочитанных сообщений. Проект Альфа / Яблочное зёрнышко Альфа / Appleseed Alpha (2014) BDRip 720p | iTunes

1230 | 88

4.24 ГБ

В этой теме нет новых непрочитанных сообщений. Проект Альфа (Яблочное зёрнышко Альфа) / Appleseed Alpha (2014) BDRip-AVC | iPad | P

110 | 7

2.06 ГБ

В этой теме нет новых непрочитанных сообщений. Проект Альфа / Appleseed Alpha (2014) BDRip 720p от New-Team | P

351 | 28

4.33 ГБ

В этой теме нет новых непрочитанных сообщений. Проект Альфа (Яблочное зёрнышко Альфа) / OVA (Appleseed Alpha) (2014) BDRip 1080p от NNNB | iTunes

811 | 20

8.38 ГБ

В этой теме нет новых непрочитанных сообщений. Проект Альфа / Appleseed Alpha (2014) BDRip 720p от Leonardo and Scarabey | P

447 | 29

2.81 ГБ

В этой теме нет новых непрочитанных сообщений. Проект Альфа / Яблочное зёрнышко Альфа / Appleseed Alpha (2014) HDRip | iTunes

2033 | 52

1.37 ГБ

В этой теме нет новых непрочитанных сообщений. Проект Альфа / Appleseed Alpha (2014) BDRip от Generalfilm | KПК | P

68 | 8

320.07 МБ




Вы не можете начинать темы
Вы не можете отвечать на сообщения
Вы не можете редактировать свои сообщения
Вы не можете удалять свои сообщения
Вы не можете добавлять вложения

Перейти:  
Для Мосгорсуда, Роскомнадзора и рекламодателей: mosgorsud-torrent[собачка]yandex.ru
 Вход
ppkBB3cker v.2 © 2008-2014 @ PPK
[ Time : 0.044s | 16 Queries | GZIP : Off ]

Торрент трекер RUTOR.IN, Не можете зайти на rutor.org? Какой новый адрес рутор? Какое зеркало рутор? Не работает rutor.org и зеркала? Тогда наш торрент специально для вас. Rutor.in неофициальное зеркало rutor. В случае если у Вас заблокирован rutor или вдруг Вы не можете на него зайти, то Вы без труда сможете скачать бесплатно и без рекламы последние новинки кино, игр, сериалов и прочего у нас, на Rutor.in. Не нужно использовать прокси, чтобы зайти на рутор, достаточно воспользоваться нашим ресурсом. Все новые фильмы, игры, сериалы, книги и музыка за 2013 и 2014 годы через торрент бесплатно. Скачивайте фильмы в хорошем качестве, игры для пк, xbox, playstation без регистрации. У нас вы найдете новые Зарубежные сериалы и Русские сериалы 2013, 2014, 2015 годов. Оставайтесь с нами, качайте любимые фильмы, игры, сериалы, книги и музыку.
cron