img image001 image001 image001 image001 image001 image001 image001 image001 image001 image001 image001 image001 image001 image001 image001

Planets Sun Sun Sun
Статистика раздачи
Автор: Nickolas3434 | Размер: 8.26 ГБ | Добавлен: 22 июл 2014
Раздают: 532    Качают: 30
Скачать торрент
Скачать торрент
Описание торрента

СообщениеДобавлено: 22 июл 2014 

Информация о фильме
Название: Проект Альфа
Оригинальное название: Appleseed Alpha
Год выхода: 2014
Жанр: аниме, мультфильм, приключения
Режиссер: Синдзи Арамаки
В ролях: Люси Кристиан, Дэвид Матранга, Элизабет Бунч, Вендель Калверт, Адам Гиббс, Крис Хатчинсон, Брина Паленсия, Джош Шелтз
О фильме: Действие посвящено боевой биографии Дюнан и Бриарея до попадания в Олимп.

Выпущено: Япония, США
Продолжительность: 01:33:15
Перевод: Любительский (одноголосый, закадровый) - Xixidok
Файл
Качество: BDRip 1080p
Формат: MKV
Видео: MPEG4/AVC, 1912х1080 (16:9), 11.9 Мбит/сек, 23.976 кадра/сек
Аудио 1: AC3, 2 канала, 192 Кбит/сек | Русский
Аудио 2: AC3, 6 каналов, 640 Кбит/сек | Английский
Субтитры: Русские, английские (Full, SDH)
Навигация по главам: Есть
Общее
Уникальный идентификатор : 192663305525781060223747915715347038572 (0x90F19A59995AB2F5B7ACB71899CD416C)
Полное имя : Appleseed Alpha. (2014) BDRip 1080p.mkv
Формат : Matroska
Версия формата : Version 2
Размер файла : 8,26 Гбайт
Продолжительность : 1 ч. 33 м.
Общий поток : 12,7 Мбит/сек
Название фильма : Appleseed Alpha. 2014
Дата кодирования : UTC 2014-07-21 18:06:37
Программа кодирования : mkvmerge v5.8.0 ('No Sleep / Pillow') built on Sep 2 2012 15:37:04
Библиотека кодирования : libebml v1.2.3 + libmatroska v1.3.0
Видео
Идентификатор : 1
Формат : AVC
Формат/Информация : Advanced Video Codec
Профиль формата : High@L4.1
Параметр CABAC формата : Да
Параметр ReFrames формата : 4 кадра
Идентификатор кодека : V_MPEG4/ISO/AVC
Продолжительность : 1 ч. 33 м.
Битрейт : 11,9 Мбит/сек
Ширина : 1912 пикселей
Высота : 1080 пикселей
Соотношение сторон : 16:9
Режим частоты кадров : Постоянный
Частота кадров : 23,976 кадра/сек
Цветовое пространство : YUV
Субдискретизация насыщенности : 4:2:0
Битовая глубина : 8 бит
Тип развёртки : Прогрессивная
Бит/(Пиксели*Кадры) : 0.239
Размер потока : 7,55 Гбайт (91%)
Заголовок : CHD
Библиотека кодирования : x264 core 142 r2431 ac76440
Настройки программы : cabac=1 / ref=4 / deblock=1:-3:-3 / analyse=0x3:0x113 / me=umh / subme=10 / psy=1 / psy_rd=1.10:0.10 / mixed_ref=1 / me_range=32 / chroma_me=1 / trellis=2 / 8x8dct=1 / cqm=0 / deadzone=21,11 / fast_pskip=0 / chroma_qp_offset=-2 / threads=6 / lookahead_threads=1 / sliced_threads=0 / nr=0 / decimate=1 / interlaced=0 / bluray_compat=0 / constrained_intra=0 / bframes=6 / b_pyramid=2 / b_adapt=2 / b_bias=0 / direct=3 / weightb=1 / open_gop=0 / weightp=2 / keyint=250 / keyint_min=23 / scenecut=40 / intra_refresh=0 / rc=2pass / mbtree=0 / bitrate=11850 / ratetol=2.0 / qcomp=0.70 / qpmin=0 / qpmax=69 / qpstep=4 / cplxblur=20.0 / qblur=0.5 / ip_ratio=1.40 / pb_ratio=1.30 / aq=2:1.00
Язык : English
Default : Да
Forced : Нет
Аудио #1
Идентификатор : 2
Формат : AC-3
Формат/Информация : Audio Coding 3
Расширение режима : CM (complete main)
Параметр Endianness формата : Big
Идентификатор кодека : A_AC3
Продолжительность : 1 ч. 33 м.
Вид битрейта : Постоянный
Битрейт : 192 Кбит/сек
Каналы : 2 канала
Расположение каналов : Front: L R
Частота : 48,0 КГц
Битовая глубина : 16 бит
Метод сжатия : С потерями
Размер потока : 128 Мбайт (2%)
Заголовок : Xixidok
Язык : Russian
Default : Да
Forced : Нет
Аудио #2
Идентификатор : 3
Формат : AC-3
Формат/Информация : Audio Coding 3
Расширение режима : CM (complete main)
Параметр Endianness формата : Big
Идентификатор кодека : A_AC3
Продолжительность : 1 ч. 33 м.
Вид битрейта : Постоянный
Битрейт : 640 Кбит/сек
Каналы : 6 каналов
Расположение каналов : Front: L C R, Side: L R, LFE
Частота : 48,0 КГц
Битовая глубина : 16 бит
Метод сжатия : С потерями
Размер потока : 427 Мбайт (5%)
Язык : English
Default : Нет
Forced : Нет
Текст #1
Идентификатор : 4
Формат : UTF-8
Идентификатор кодека : S_TEXT/UTF8
Идентификатор кодека/Информация : UTF-8 Plain Text
Заголовок : Full
Язык : Russian
Default : Нет
Forced : Нет
Текст #2
Идентификатор : 5
Формат : UTF-8
Идентификатор кодека : S_TEXT/UTF8
Идентификатор кодека/Информация : UTF-8 Plain Text
Заголовок : Full
Язык : English
Default : Нет
Forced : Нет
Текст #3
Идентификатор : 6
Формат : UTF-8
Идентификатор кодека : S_TEXT/UTF8
Идентификатор кодека/Информация : UTF-8 Plain Text
Заголовок : SDH
Язык : English
Default : Нет
Forced : Нет
Меню
00:00:00.000 : :Chapter 1
00:05:09.935 : :Chapter 2
00:09:07.839 : :Chapter 3
00:14:45.968 : :Chapter 4
00:19:39.261 : :Chapter 5
00:29:15.629 : :Chapter 6
00:33:53.615 : :Chapter 7
00:38:17.462 : :Chapter 8
00:44:42.972 : :Chapter 9
00:51:24.123 : :Chapter 10
00:56:58.040 : :Chapter 11
01:02:53.478 : :Chapter 12
01:08:48.875 : :Chapter 13
01:13:17.435 : :Chapter 14
01:19:03.072 : :Chapter 15
01:24:49.167 : :Chapter 16


Релиз от:



   Похожие торренты   Торрент   Размер 
В этой теме нет новых непрочитанных сообщений. Проект Альфа (Яблочное зёрнышко Альфа) / OVA (Appleseed Alpha) (2014) BDRip 1080p от NNNB | iTunes

811 | 20

8.38 ГБ

В этой теме нет новых непрочитанных сообщений. Проект Альфа (Яблочное зёрнышко Альфа) / Appleseed Alpha (2014) BDRip-AVC | iPad | P

110 | 7

2.06 ГБ

В этой теме нет новых непрочитанных сообщений. Проект Альфа / Яблочное зёрнышко Альфа / Appleseed Alpha (2014) BDRip 720p | iTunes

1230 | 88

4.24 ГБ

В этой теме нет новых непрочитанных сообщений. Проект Альфа / Яблочное зёрнышко Альфа / Appleseed Alpha (2014) HDRip | iTunes

2033 | 52

1.37 ГБ

В этой теме нет новых непрочитанных сообщений. Проект Альфа / Appleseed Alpha (2014) BDRip 720p | L1

543 | 22

4.11 ГБ

В этой теме нет новых непрочитанных сообщений. Проект Альфа / Appleseed Alpha (2014) BDRip от Generalfilm | KПК | P

68 | 8

320.07 МБ

В этой теме нет новых непрочитанных сообщений. Проект Альфа / Appleseed Alpha (2014) BDRip-AVC от HELLYWOOD | iTunes

474 | 18

2.18 ГБ




Вы не можете начинать темы
Вы не можете отвечать на сообщения
Вы не можете редактировать свои сообщения
Вы не можете удалять свои сообщения
Вы не можете добавлять вложения

Перейти:  
Для Мосгорсуда, Роскомнадзора и рекламодателей: mosgorsud-torrent[собачка]yandex.ru
 Вход
ppkBB3cker v.2 © 2008-2014 @ PPK
[ Time : 0.040s | 16 Queries | GZIP : Off ]

Торрент трекер RUTOR.IN, Не можете зайти на rutor.org? Какой новый адрес рутор? Какое зеркало рутор? Не работает rutor.org и зеркала? Тогда наш торрент специально для вас. Rutor.in неофициальное зеркало rutor. В случае если у Вас заблокирован rutor или вдруг Вы не можете на него зайти, то Вы без труда сможете скачать бесплатно и без рекламы последние новинки кино, игр, сериалов и прочего у нас, на Rutor.in. Не нужно использовать прокси, чтобы зайти на рутор, достаточно воспользоваться нашим ресурсом. Все новые фильмы, игры, сериалы, книги и музыка за 2013 и 2014 годы через торрент бесплатно. Скачивайте фильмы в хорошем качестве, игры для пк, xbox, playstation без регистрации. У нас вы найдете новые Зарубежные сериалы и Русские сериалы 2013, 2014, 2015 годов. Оставайтесь с нами, качайте любимые фильмы, игры, сериалы, книги и музыку.
cron