img image001 image001 image001 image001 image001 image001 image001 image001 image001 image001 image001 image001 image001 image001 image001 image001

Planets Sun Sun Sun
Статистика раздачи
Автор: Nickolas3434 | Размер: 5.1 ГБ | Добавлен: 28 июл 2014
Раздают: 7    Качают: 3
Скачать торрент
Скачать торрент
Описание торрента

СообщениеДобавлено: 28 июл 2014 

Фантазия / Fantasia (1940) BDRip 720p | 60 fps



Год выпуска: 1940
Жанр: мультфильм, фэнтези, семейный
Производство: США
Описание:
Необычайный, поражающий воображение мультконцерт, небывалое ранее единение музыки и мультипликации. Дисней и знаменитый дирижер Леопольд Стоковски решили воспроизвести на экране фантазии, возникающие в сознании людей при прослушивании музыкальных шедевров.

Картина состоит из 8 классических композиций, проиллюстрированных сюжетными инсценировками и ритмичными абстракциями, предвосхищающими чудеса компьютерной графики.

Режиссер: Норман Фергюсон, Пол Сэттерфилд, Бен Шарпстин, Джеймс Элгар, Сэмюэл Армстронг, Форд Биби мл., Джим Хэндли, Т. Хи, Уилфред Джексон, Хэмильтон Ласки, Билл Робертс
Актеры: Леопольд Стоковски, Димс Тейлор, Кори Бертон, Уолт Дисней, Джеймс МакДональд, Джульетта Новис, Пол Дж. Смит

Продолжительность: 02:04:27
Качество видео: BDRip
Перевод: Одноголосый закадровый
Язык субтитров: Rus (полные), Eng (полные)
Вид субтитров: Вшитые

Видеокодек: MPEG-4 AVC/H.264
Битрейт видео: ~4470 kb/s
Размер кадра: 960*720
Аудио 1 Русский: AC3 5.1, 640 kb/s, Студия Кубик в кубике, Одноголосый закадровый
Аудио 2 Английский: AC3 5.1, 640 kb/s
Сэмпл: Ссылка
Автор рипа: Tiberiumsun69
Перед скачиванием обязательно проверьте Сэмпл на своем оборудовании.

Оптимальные настройки http://www.svp-team.com/wiki/Аппаратные_декодеры
В 2,5 раза больше кадров!
В 2,5 раза плавнее! (59,94 fps)
Приятного просмотра. =)

Общее
Уникальный идентификатор : 210653328573703322974636694043553848696 (0x9E7A5AF776AA1F4FAF1C00E9435A5D78)
Полное имя : A:720p 60fpsФантазия 720p 60fps.mkv
Формат : Matroska
Версия формата : Version 4 / Version 2
Размер файла : 5,10 Гбайт
Продолжительность : 2 ч. 4 м.
Общий поток : 5866 Кбит/сек
Дата кодирования : UTC 2014-07-25 12:39:21
Программа кодирования : mkvmerge v6.9.1 ('Blue Panther') 64bit built on Apr 18 2014 18:23:38
Библиотека кодирования : libebml v1.3.0 + libmatroska v1.4.1

Видео
Идентификатор : 1
Формат : AVC
Формат/Информация : Advanced Video Codec
Профиль формата : High@L4.1
Параметр CABAC формата : Да
Параметр ReFrames формата : 9 кадров
Идентификатор кодека : V_MPEG4/ISO/AVC
Продолжительность : 2 ч. 4 м.
Битрейт : 4470 Кбит/сек
Ширина : 960 пикселей
Высота : 720 пикселей
Соотношение сторон : 4:3
Режим частоты кадров : Постоянный
Частота кадров : 59,880 кадров/сек
Частота кадров в оригинале : 59,940 кадров/сек
Цветовое пространство : YUV
Субдискретизация насыщенности : 4:2:0
Битовая глубина : 8 бит
Тип развёртки : Прогрессивная
Бит/(Пиксели*Кадры) : 0.108
Размер потока : 3,89 Гбайт (76%)
Библиотека кодирования : x264 core 130 r2273 b3065e6
Настройки программы : cabac=1 / ref=9 / deblock=1:-1:-1 / analyse=0x3:0 / me=umh / subme=9 / psy=1 / psy_rd=1.00:0.10 / mixed_ref=1 / me_range=42 / chroma_me=0 / trellis=2 / 8x8dct=1 / cqm=0 / deadzone=21,11 / fast_pskip=0 / chroma_qp_offset=-3 / threads=12 / lookahead_threads=1 / sliced_threads=0 / nr=0 / decimate=0 / interlaced=0 / bluray_compat=0 / constrained_intra=0 / bframes=6 / b_pyramid=2 / b_adapt=2 / b_bias=0 / direct=1 / weightb=1 / open_gop=0 / weightp=2 / keyint=594 / keyint_min=59 / scenecut=40 / intra_refresh=0 / rc=crf / mbtree=0 / crf=16.0 / qcomp=0.60 / qpmin=0 / qpmax=69 / qpstep=4 / ip_ratio=1.40 / pb_ratio=1.30 / aq=0
Язык : English
Default : Да
Forced : Нет

Аудио #1
Идентификатор : 2
Формат : AC-3
Формат/Информация : Audio Coding 3
Расширение режима : CM (complete main)
Параметр Endianness формата : Big
Идентификатор кодека : A_AC3
Продолжительность : 2 ч. 4 м.
Вид битрейта : Постоянный
Битрейт : 640 Кбит/сек
Каналы : 6 каналов
Расположение каналов : Front: L C R, Side: L R, LFE
Частота : 48,0 КГц
Битовая глубина : 16 бит
Метод сжатия : С потерями
Размер потока : 570 Мбайт (11%)
Заголовок : AVO Kubik v Kubike
Язык : Russian
Default : Да
Forced : Нет

Аудио #2
Идентификатор : 3
Формат : AC-3
Формат/Информация : Audio Coding 3
Расширение режима : CM (complete main)
Параметр Endianness формата : Big
Идентификатор кодека : A_AC3
Продолжительность : 2 ч. 4 м.
Вид битрейта : Постоянный
Битрейт : 640 Кбит/сек
Каналы : 6 каналов
Расположение каналов : Front: L C R, Side: L R, LFE
Частота : 48,0 КГц
Битовая глубина : 16 бит
Метод сжатия : С потерями
Размер потока : 570 Мбайт (11%)
Заголовок : Original
Язык : English
Default : Нет
Forced : Нет

Текст #1
Идентификатор : 4
Формат : UTF-8
Идентификатор кодека : S_TEXT/UTF8
Идентификатор кодека/Информация : UTF-8 Plain Text
Заголовок : Full
Язык : Russian
Default : Нет
Forced : Нет

Текст #2
Идентификатор : 5
Формат : UTF-8
Идентификатор кодека : S_TEXT/UTF8
Идентификатор кодека/Информация : UTF-8 Plain Text
Заголовок : Full
Язык : English
Default : Нет
Forced : Нет

Меню
00:00:00.000 : en:Opening/Narrator's Introduction
00:03:59.114 : en:"Toccata And Fugue In D Minor"- Johann Sebastian Bach
00:13:39.819 : en:Narrator's Introduction
00:14:20.860 : en:"The Nutcracker Suite"- Pyotr Ilyich Tchaikovsky
00:28:48.143 : en:Narrator's Introduction
00:29:49.997 : en:"The Sorcerer's Apprentice"- Paul Dukas
00:39:36.374 : en:Narrator's Introduction
00:42:42.560 : en:"The Rite Of Spring"- Igor Stravinsky
01:05:23.920 : en:Intermission
01:08:45.538 : en:Meet The Soundtrack
01:12:12.537 : en:Narrator's Introduction
01:13:52.845 : en:"The Pastoral Symphony"-Ludwig Van Beethoven
01:36:10.765 : en:Narrator's Introduction
01:37:01.816 : en:"Dance Of The Hours"- Amilcare Ponchielli
01:49:20.971 : en:Narrator's Introduction
01:50:27.621 : en:"Night On Bald Mountain"- Modeste Moussorgsky
01:58:25.098 : en:"Ave Maria"- Franz Schubert

Скриншоты:



   Похожие торренты   Торрент   Размер 
В этой теме нет новых непрочитанных сообщений. Фантазия / Fantasia (1940) BDRip HEVC 720p | P1

13 | 0

2.43 ГБ

В этой теме нет новых непрочитанных сообщений. Фантазия / Fantasia (1940) BDRip 1080p | 60 fps

35 | 7

7.38 ГБ

В этой теме нет новых непрочитанных сообщений. Фантазия / Fantasia (1940) BDRip от R. G. Jolly Roger | P1

25 | 3

1.46 ГБ

В этой теме нет новых непрочитанных сообщений. Фантазия / Fantasia (1940) BDRip HEVC 1080p | P1

4 | 3

5.48 ГБ

В этой теме нет новых непрочитанных сообщений. Фантазия / Fantasia (1940) HDRip-AVC от ExKinoRay | P1

61 | 6

2.69 ГБ

В этой теме нет новых непрочитанных сообщений. OST - Фантазия / Fantasia (1940) [The Legacy Collection, 4CD] (2015) FLAC

7 | 3

1010.49 МБ

В этой теме нет новых непрочитанных сообщений. Кингсглейв: Последняя фантазия XV / Kingsglaive: Final Fantasy XV (2016) BDRip 720p | iTunes

558 | 169

5.78 ГБ




Вы не можете начинать темы
Вы не можете отвечать на сообщения
Вы не можете редактировать свои сообщения
Вы не можете удалять свои сообщения
Вы не можете добавлять вложения

Перейти:  
 Вход
ppkBB3cker v.2 © 2008-2014 @ PPK
[ Time : 0.034s | 18 Queries | GZIP : Off ]

cron