img image001 image001 image001 image001 image001 image001 image001 image001 image001 image001 image001 image001 image001 image001 image001

Planets Sun Sun Sun
Статистика раздачи
Автор: Nickolas3434 | Размер: 744.95 МБ | Добавлен: 02 авг 2014
Раздают: 32    Качают: 7
Скачать торрент
Скачать торрент
Описание торрента

СообщениеДобавлено: 02 авг 2014 

Страна: США
Производство: Home Box Office (HBO)

Жанр: мультфильм, приключения
Год выпуска: 1998
Продолжительность: 01:43:35

Перевод: Профессиональный (полное дублирование)
Оригинальная аудиодорожка: нет
Cубтитры: нет

Режиссер: Валентас Ашкинс / Valentas Ashkins

Описание:
Король Итаки, Одиссей и другие правители древней Греции отправились в поход на Троянскую Империю, чтобы освободить прекрасную Елену, которая была украдена Парисом, сыном Троянского короля. Война длилась десять лет, но в итоге греки победили троянцев, использовав идею Одиссея с «Троянским конем». Греки полностью разрушили Трою. После победы Одиссей и его народ сели в свои корабли и поплыли в Итаку, где его ждали жена Пенелопа и сын Тилимахос. Но согласно греческой легенде, боги обозлились на Одиссея и его род и сделали их возвращение домой чрезвычайно трудным и полным опасностей. Встреча с Сиренами, битва с Циклопом и еще множество самых вероятных событий и приключений…





Исходник: DVD5 R5
Тип релиза: DVDRip
Контейнер: AVI

Видео: 576x432 (4:3), 25,000 fps, XviD ~ 868 kbps avg, 0.139 bit/pixel
Аудио: 48 kHz, MP3 2.0, 128 kbps

Раздача от:
Общее
Полное имя : Razrushenie.Troi.i.priklyucheniya.Odisseya.1998.DVDRip-745_[New-team]_by_AVP_Studio.avi
Формат : AVI
Формат/Информация : Audio Video Interleave
Размер файла : 745 Мбайт
Продолжительность : 1 ч. 43 м.
Общий поток : 1005 Кбит/сек
Программа кодирования : VirtualDubModRus 1.5.10.2 (build 2542/release)
Библиотека кодирования : VirtualDubMod build 2542/release

Видео
Идентификатор : 0
Формат : MPEG-4 Visual
Профиль формата : Advanced Simple@L5
Параметр BVOP формата : 1
Параметр QPel формата : Нет
Параметр GMC формата : Без точки перехода
Параметр матрицы формата : Выборочная
Идентификатор кодека : XVID
Идентификатор кодека/Подсказка : XviD
Продолжительность : 1 ч. 43 м.
Битрейт : 868 Кбит/сек
Ширина : 576 пикселей
Высота : 432 пикселя
Соотношение сторон : 4:3
Частота кадров : 25,000 кадров/сек
Цветовое пространство : YUV
Субдискретизация насыщенности : 4:2:0
Битовая глубина : 8 бит
Тип развёртки : Прогрессивная
Метод сжатия : С потерями
Бит/(Пиксели*Кадры) : 0.139
Размер потока : 643 Мбайт (86%)
Библиотека кодирования : XviD 73

Аудио
Идентификатор : 1
Формат : MPEG Audio
Версия формата : Version 1
Профиль формата : Layer 3
Идентификатор кодека : 55
Идентификатор кодека/Подсказка : MP3
Продолжительность : 1 ч. 43 м.
Вид битрейта : Постоянный
Битрейт : 128 Кбит/сек
Каналы : 2 канала
Частота : 48,0 КГц
Метод сжатия : С потерями
Размер потока : 94,8 Мбайт (13%)
Выравнивание : Соединение по промежуткам
Продолжительность промежутка : 40 мс. (1,00 видеокадр)
Время предзагрузки промежутка : 504 мс.
Библиотека кодирования : LAME3.99r
Настройки программы : -m s -V 4 -q 2 -lowpass 17 -b 128





   Похожие торренты   Торрент   Размер 
В этой теме нет новых непрочитанных сообщений. Разрушение Трои и приключения Одиссея / Destruction of Troy and Adventures of Odysseus (1998) DVDRip от New-Team

71 | 9

1.46 ГБ

В этой теме нет новых непрочитанных сообщений. Разрушение Трои и приключения Одиссея / Destruction of Troy and Adventures of Odysseus (1998) DVDRip-AVC от New-Team

59 | 3

1.46 ГБ

В этой теме нет новых непрочитанных сообщений. Разрушение Трои и приключения Одиссея / Destruction of Troy and adventures of Odysseus (1998) DVDRip от KinoRay & Sheikn

11 | 139

1.41 ГБ

В этой теме нет новых непрочитанных сообщений. Легион 3: Врата Трои / Gates of Troy (2004) PC | Лицензия

53 | 0

703.13 МБ

В этой теме нет новых непрочитанных сообщений. Разрушение Хиросимы и Нагасаки / The destruction of Hiroshima and Nagasaki HDTV 1080i от Generalfilm

90 | 51

4.27 ГБ

В этой теме нет новых непрочитанных сообщений. Белый свет / Черный дождь: Разрушение Хиросимы и Нагасаки / White Light / Black Rain: The Destruction of Hiroshima and Nagasaki (2007) HDTVRip

107 | 21

1.46 ГБ

В этой теме нет новых непрочитанных сообщений. Разрушение Лас-Вегаса / Blast Vegas / Destruction: Las Vegas (2013) HDTVRip | P

2016 | 256

1.45 ГБ




Вы не можете начинать темы
Вы не можете отвечать на сообщения
Вы не можете редактировать свои сообщения
Вы не можете удалять свои сообщения
Вы не можете добавлять вложения

Перейти:  
Для Мосгорсуда, Роскомнадзора и рекламодателей: mosgorsud-torrent[собачка]yandex.ru
 Вход
ppkBB3cker v.2 © 2008-2014 @ PPK
[ Time : 0.027s | 15 Queries | GZIP : On ]

Торрент трекер RUTOR.IN, Не можете зайти на rutor.org? Какой новый адрес рутор? Какое зеркало рутор? Не работает rutor.org и зеркала? Тогда наш торрент специально для вас. Rutor.in неофициальное зеркало rutor. В случае если у Вас заблокирован rutor или вдруг Вы не можете на него зайти, то Вы без труда сможете скачать бесплатно и без рекламы последние новинки кино, игр, сериалов и прочего у нас, на Rutor.in. Не нужно использовать прокси, чтобы зайти на рутор, достаточно воспользоваться нашим ресурсом. Все новые фильмы, игры, сериалы, книги и музыка за 2013 и 2014 годы через торрент бесплатно. Скачивайте фильмы в хорошем качестве, игры для пк, xbox, playstation без регистрации. У нас вы найдете новые Зарубежные сериалы и Русские сериалы 2013, 2014, 2015 годов. Оставайтесь с нами, качайте любимые фильмы, игры, сериалы, книги и музыку.