img image001 image001 image001 image001 image001 image001 image001 image001 image001 image001 image001 image001 image001 image001 image001

Planets Sun Sun Sun
Статистика раздачи
Автор: Nickolas3434 | Размер: 1.81 ГБ | Добавлен: 05 авг 2014
Раздают: 596    Качают: 54
Скачать торрент
Скачать торрент
Описание торрента

СообщениеДобавлено: 05 авг 2014 

Информация о фильме
Название: Приключения мистера Пибоди и Шермана
Оригинальное название: Mr. Peabody & Sherman
Год выпуска: 2014
Жанр: Мультфильм, фантастика, комедия, приключения, семейный
Выпущено: США, Bullwinkle Studios, Classic Media Productions, DreamWorks Animation, Pacific Data Images (PDI)
Режиссер: Роб Минкофф
В ролях: Тай Буррелл, Макс Чарльз, Эриель Винтер, Стефен Колбер, Лесли Манн, Эллисон Джэнни, Стэнли Туччи, Том МакГрат, Лэйк Белл, Зак Каллисон

О фильме: Мистер Пибоди — бизнесмен, изобретатель, ученый, нобелевский лауреат, гурман, двукратный олимпийский чемпион и гений… который кроме всего прочего является собакой. При помощи своего самого неординарного изобретения — машины ВЕЙБЕК — мистер Пибоди и его приемный сын Шерман мгновенно перемещаются в прошлое, где становятся свидетелями самых важных исторических событий и общаются с известными историческими персонажами. Но когда Шерман нарушает правила путешествий во времени, нашим героям приходится вновь отправиться в путь — на сей раз с целью восстановления цепи исторических событий и спасения будущего. Кроме того, мистеру Пибоди предстоит справиться с самой сложной для него задачей — стать настоящим отцом для Шермана.



Файл
Качество: HDRip (AVC)
Видео: MPEG-4 AVC, 2349 Кбит/с, 1024x554
Аудио: Русский (AC3, 6 ch, 448 Кбит/с)
Продолжительность: 01:32:29
Перевод: Дублированный [Лицензия]
Субтитры: Русские, украинские (полные и форсированные), английские

General
Unique ID : 182006324207416968088034730452989901833 (0x88ED249AB9301DEC8A404C9748B9FC09)
Complete name : C:Mr.Pib0di.i.Sherman.2014.D.HDRip.AVC.ExKinoray.mkv
Format : Matroska
Format version : Version 2
File size : 1.81 GiB
Duration : 1h 32mn
Overall bit rate : 2 799 Kbps
Movie name : Pibody i Sherman from ExKinoRay
Encoded date : UTC 2014-08-03 17:59:17
Writing application : mkvmerge v4.9.1 ('Ich will') built on Jul 11 2011 23:53:15
Writing library : libebml v1.2.1 + libmatroska v1.1.1

Video
ID : 1
Format : AVC
Format/Info : Advanced Video Codec
Format profile : High@L4.1
Format settings, CABAC : Yes
Format settings, ReFrames : 9 frames
Codec ID : V_MPEG4/ISO/AVC
Duration : 1h 32mn
Bit rate : 2 349 Kbps
Width : 1 024 pixels
Height : 554 pixels
Display aspect ratio : 1.85:1
Frame rate mode : Constant
Frame rate : 23.976 fps
Color space : YUV
Chroma subsampling : 4:2:0
Bit depth : 8 bits
Scan type : Progressive
Bits/(Pixel*Frame) : 0.173
Stream size : 1.48 GiB (82%)
Title : Enigma-Vladislav71
Writing library : x264 core 116 r2044 392e762
Encoding settings : cabac=1 / ref=9 / deblock=1:-2:-2 / analyse=0x3:0x113 / me=umh / subme=10 / psy=1 / psy_rd=1.00:0.20 / mixed_ref=1 / me_range=32 / chroma_me=1 / trellis=2 / 8x8dct=1 / cqm=0 / deadzone=21,11 / fast_pskip=0 / chroma_qp_offset=-3 / threads=12 / sliced_threads=0 / nr=0 / decimate=0 / interlaced=0 / bluray_compat=0 / constrained_intra=0 / bframes=9 / b_pyramid=2 / b_adapt=2 / b_bias=0 / direct=3 / weightb=1 / open_gop=0 / weightp=2 / keyint=240 / keyint_min=23 / scenecut=40 / intra_refresh=0 / rc=2pass / mbtree=0 / bitrate=2349 / ratetol=1.0 / qcomp=0.60 / qpmin=0 / qpmax=69 / qpstep=4 / cplxblur=20.0 / qblur=0.5 / ip_ratio=1.40 / pb_ratio=1.30 / aq=1:1.00
Default : Yes
Forced : No

Audio
ID : 2
Format : AC-3
Format/Info : Audio Coding 3
Mode extension : CM (complete main)
Format settings, Endianness : Big
Codec ID : A_AC3
Duration : 1h 32mn
Bit rate mode : Constant
Bit rate : 448 Kbps
Channel(s) : 6 channels
Channel positions : Front: L C R, Side: L R, LFE
Sampling rate : 48.0 KHz
Bit depth : 16 bits
Compression mode : Lossy
Stream size : 296 MiB (16%)
Title : DUB CEE
Language : Russian
Default : Yes
Forced : No

Text #1
ID : 3
Format : UTF-8
Codec ID : S_TEXT/UTF8
Codec ID/Info : UTF-8 Plain Text
Title : Full
Language : Russian
Default : No
Forced : No

Text #2
ID : 4
Format : UTF-8
Codec ID : S_TEXT/UTF8
Codec ID/Info : UTF-8 Plain Text
Title : Full
Language : Ukrainian
Default : No
Forced : No

Text #3
ID : 5
Format : UTF-8
Codec ID : S_TEXT/UTF8
Codec ID/Info : UTF-8 Plain Text
Title : Forced
Language : Ukrainian
Default : No
Forced : No

Text #4
ID : 6
Format : UTF-8
Codec ID : S_TEXT/UTF8
Codec ID/Info : UTF-8 Plain Text
Title : Forced
Language : English
Default : No
Forced : No

Text #5
ID : 7
Format : UTF-8
Codec ID : S_TEXT/UTF8
Codec ID/Info : UTF-8 Plain Text
Title : English
Language : English
Default : No
Forced : No

Menu
00:00:00.000 : en:00:00:00.000
00:03:48.061 : en:00:03:48.061
00:07:12.223 : en:00:07:12.223
00:11:02.495 : en:00:11:02.495
00:13:30.018 : en:00:13:30.018
00:17:29.465 : en:00:17:29.465
00:21:48.516 : en:00:21:48.516
00:26:39.306 : en:00:26:39.306
00:28:40.177 : en:00:28:40.177
00:30:53.101 : en:00:30:53.101
00:33:57.452 : en:00:33:57.452
00:35:29.919 : en:00:35:29.919
00:37:47.182 : en:00:37:47.182
00:41:27.652 : en:00:41:27.652
00:44:47.685 : en:00:44:47.685
00:48:16.352 : en:00:48:16.352
00:51:48.981 : en:00:51:48.981
00:54:56.543 : en:00:54:56.543
00:58:32.801 : en:00:58:32.801
01:00:49.187 : en:01:00:49.187
01:02:53.186 : en:01:02:53.186
01:04:39.084 : en:01:04:39.084
01:08:22.265 : en:01:08:22.265
01:11:13.728 : en:01:11:13.728
01:14:52.655 : en:01:14:52.655
01:20:27.448 : en:01:20:27.448
01:21:40.312 : en:01:21:40.312
01:22:39.580 : en:01:22:39.580





Релиз от:

Авторы релиза:



   Похожие торренты   Торрент   Размер 
В этой теме нет новых непрочитанных сообщений. Приключения мистера Пибоди и Шермана / Mr. Peabody & Sherman (2014) HDRip-AVC от ExKinoRay | iTunes

129 | 10

1.77 ГБ

В этой теме нет новых непрочитанных сообщений. Приключения мистера Пибоди и Шермана / Mr. Peabody & Sherman (2014) HDRip | Лицензия

452 | 68

1.47 ГБ

В этой теме нет новых непрочитанных сообщений. Приключения мистера Пибоди и Шермана / Mr. Peabody & Sherman (2014) WEB-DLRip-AVC от ExKinoRay | iTunes

692 | 91

2.16 ГБ

В этой теме нет новых непрочитанных сообщений. Приключения мистера Пибоди и Шермана / Mr. Peabody & Sherman (2014) WEB-DLRip-AVC от ExKinoRay | Чистый звук

526 | 17

1.77 ГБ

В этой теме нет новых непрочитанных сообщений. Приключения мистера Пибоди и Шермана / Mr. Peabody & Sherman (2014) HDRip | iTunes

425 | 35

1.38 ГБ

В этой теме нет новых непрочитанных сообщений. Приключения мистера Пибоди и Шермана / Mr. Peabody & Sherman (2014) BDRip от HQCLUB | Лицензия

3149 | 170

1.45 ГБ

В этой теме нет новых непрочитанных сообщений. Приключения мистера Пибоди и Шермана / Mr. Peabody & Sherman (2014) BDRip-AVC от HQCLUB | Лицензия

225 | 13

2.73 ГБ




Вы не можете начинать темы
Вы не можете отвечать на сообщения
Вы не можете редактировать свои сообщения
Вы не можете удалять свои сообщения
Вы не можете добавлять вложения

Перейти:  
Для Мосгорсуда, Роскомнадзора и рекламодателей: mosgorsud-torrent[собачка]yandex.ru
 Вход
ppkBB3cker v.2 © 2008-2014 @ PPK
[ Time : 0.021s | 15 Queries | GZIP : On ]

Торрент трекер RUTOR.IN, Не можете зайти на rutor.org? Какой новый адрес рутор? Какое зеркало рутор? Не работает rutor.org и зеркала? Тогда наш торрент специально для вас. Rutor.in неофициальное зеркало rutor. В случае если у Вас заблокирован rutor или вдруг Вы не можете на него зайти, то Вы без труда сможете скачать бесплатно и без рекламы последние новинки кино, игр, сериалов и прочего у нас, на Rutor.in. Не нужно использовать прокси, чтобы зайти на рутор, достаточно воспользоваться нашим ресурсом. Все новые фильмы, игры, сериалы, книги и музыка за 2013 и 2014 годы через торрент бесплатно. Скачивайте фильмы в хорошем качестве, игры для пк, xbox, playstation без регистрации. У нас вы найдете новые Зарубежные сериалы и Русские сериалы 2013, 2014, 2015 годов. Оставайтесь с нами, качайте любимые фильмы, игры, сериалы, книги и музыку.