img image001 image001 image001 image001 image001 image001 image001 image001 image001 image001 image001 image001 image001 image001 image001

Planets Sun Sun Sun
Статистика раздачи
Автор: Nickolas3434 | Размер: 13.61 ГБ | Добавлен: 07 авг 2014
Раздают: 25    Качают: 260
Скачать торрент
Скачать торрент
Описание торрента

СообщениеДобавлено: 07 авг 2014 

Информация о фильме
Название: Учимся вместе: Руби и Йо-йо
Оригинальное название: Rubi
Год выхода: 2011
Жанр: Мультсериал, обучающий, развивающий, детский
Режиссер: Ю Яньпин, Ян Квирен

О фильме:
Опрятная и аккуратная героиня мультипликационного фильма девочка по имени Руби, рассказывает маленьким зрителям об окружающем их мире. В доступной и увлекательной форме она учит правильно и грамотно соблюдать личную гигиену, помогать родителям по дому, ухаживать за своими игрушками. Маленький человечек, оказываясь в незнакомом для него мире, не знает как правильно поступать в тех или иных ситуациях, когда можно начать разговор в присутствии взрослых или лучше промолчать... Девочка Руби и её друг Йо-йо в красочном и добром мультфильме живут жизнью самих юных сверстников, они отлично понимают их интересы, их увлечения. А посему смотреть мультик интересно не только детям, но и взрослым, чтобы лучше понимать мир малышей.

01. Розыгрыш
02. Портрет белого медвежонка
03. Акула
04. Волшебная ручка
05. Вертушка
06. Красные конфеты
07. Маскарад
08. Недоступные конфеты
09. Снежинки
10. Страусёнок учится летать
11. Желтый цвет
12. Кораблики желаний
13. Волшебный колпак
14. Цыплята
15. Жадина-говядина
16. Подарки для друзей
17. Всё наоборот
18. Волшебный полёт
19. Заводной мишка
20. Как получить пятёрку
21. Помогаем папе
22. Обед для медвежонка
23. Заботливая дочка
24. Автомат с пирожными
25. Запасы на зиму
26. Скейтбордистка
27. Как стать сильным
28. Необычный гость
29. Фокусники
30. Рассеянный почтальон
31. Сокровище в саду
32. Посылка от папы
33. Необычный загар
34. Новый почтальон
35. Прыгуны
36. Осторожно! Злая собака!
37. Малыш Клубничка идёт в гости
38. Как помирить маму с папой
39. Незваный гость
40. Волшебная метла
41. Фрукты для друзей
42. Волшебный пистолет
43. Пропавшая туфелька
44. Гантели для дяди Миши
45. Волшебный мячик
46. Кроватка для Йойо
47. Волшебная лампа
48. Медвежонок один дома
49. Сюрприз для Клубнички
50. Массажисты
51. Малышка Руби
52. Конкурс красоты
53. Волшебный пульт
54. Чемпион
55. Руби, не болей!
56. Играем в боулинг
57. Эрху
58. Воздушные змеи
59. Кукла под дождём
60. Новый дом для муравьёв
61. Семейные соревнования
62. Кенгурёнок
63. Клубничка уходит из дома
64. Тигр
65. Футбол
-----------
66. В гостях у Зайчика
67. Прятки
68. Разноцветный лёд
69. Три Йо-Йо
70. Скакалочка
71. Рисунок для птички
72. Китти у врача
73. Паровозик и виноград
74. Машинка
75. Сердитый Краб
76. Толкание Ядра
77. Обезьянка
78. Медвежонок Панда
79. Музыкальный фестиваль
80. Утёнок
81. Прыгающий мячик
82. Мамина помада
83. Соня
84. Шутники
85. День и Ночь
86. Хлопаем в ладоши - песенка Руби
87. Веселый Клоун
88. Догонялки
89. Платочек
90. Морские Котики
91. Щенок
92. Коварные пирожные
93. Ресторан
94. Кактус
95. Волейбол
96. Приключения под водой
97. Прыжки в высоту
98. Таинственное письмо
99. Головастик
100. День учителя
101. День папы
102. Снеговик
103. Ходячая раковина
104. Квадраты
105. Рыбалка
106. Стрельба из лука
107. Шалости
108. Перетягивание каната
109. Гимнасты
110. Бумеранг
111. Дядя Миша - учитель
112. Новый Шарфик
113. Битва с комаром
114. Помидорки
115. Мишка и боевые искусства
116. Аквариумные рыбки
117. Меткий стрелок
118. Оранжевый мир
119. Гольф
120. Зубная фея
121. Разноцветные шары
122. Остров приключений
123. Скушаем арбуз
124. Как играть на губной гармошке
125. Волшебная мисочка
126. Красное варенье
127. Мокрое одеяло
128. Мамины туфли
129. Чудесный пульт
130. Шоколадная сказка
131. Рисунок
132. Танцуем вместе
133. В облаках
134. Магазинчик Руби
135. Молочный коктейль

Страна: Сингапур
Студия: Hits for kids
Продолжительность: ~00:06:00 серия
Перевод: Профессиональный (одноголосый закадровый)

Файл
Кодек: AVC / AC3
Качество: WEB-DLRip 720p
Видео: AVC, 960x720 (4:3), 25.000 fps, 1 800 Kbps (0.104 bit/pixel)
Звук: AC-3, 48.0 KHz, 2 ch, 192 Kbps, CBR (Russian)

General
Unique ID : 234681721139690219322833176754507123607 (0xB08E0E2FA21FC7998A241C9C302A8B97)
Complete name : /Руби и Йо-йо.3 сезон.720p.x264.-merci/Автомат с пирожными.720p.x264.mkv
Format : Matroska
Format version : Version 2
File size : 104 MiB
Duration : 7mn 15s
Overall bit rate : 1 995 Kbps
Movie name : Руби и Йо-Йо / Ruby io io/ 3 сезон / by - merci -
Encoded date : UTC 2014-06-23 22:14:21
Writing application : mkvmerge v5.8.0 ('No Sleep / Pillow') built on Sep 2 2012 15:37:04
Writing library : libebml v1.2.3 + libmatroska v1.3.0

Video
ID : 1
Format : AVC
Format/Info : Advanced Video Codec
Format profile : High@L4.1
Format settings, CABAC : Yes
Format settings, ReFrames : 8 frames
Codec ID : V_MPEG4/ISO/AVC
Duration : 7mn 15s
Bit rate : 1 800 Kbps
Width : 960 pixels
Height : 720 pixels
Display aspect ratio : 4:3
Frame rate : 25.000 fps
Color space : YUV
Chroma subsampling : 4:2:0
Bit depth : 8 bits
Scan type : Progressive
Bits/(Pixel*Frame) : 0.104
Stream size : 91.5 MiB (88%)
Title : Автомат с пирожными.720p.x264.-merci
Writing library : x264 core 125 r2208 d9d2288
Encoding settings : cabac=1 / ref=8 / deblock=1:-2:-2 / analyse=0x3:0x133 / me=umh / subme=9 / psy=1 / psy_rd=1.15:0.25 / mixed_ref=1 / me_range=32 / chroma_me=1 / trellis=2 / 8x8dct=1 / cqm=0 / deadzone=21,11 / fast_pskip=0 / chroma_qp_offset=-4 / threads=6 / lookahead_threads=1 / sliced_threads=0 / nr=0 / decimate=0 / interlaced=0 / bluray_compat=0 / constrained_intra=0 / bframes=5 / b_pyramid=2 / b_adapt=2 / b_bias=0 / direct=3 / weightb=1 / open_gop=0 / weightp=2 / keyint=250 / keyint_min=25 / scenecut=40 / intra_refresh=0 / rc=2pass / mbtree=0 / bitrate=1800 / ratetol=1.0 / qcomp=0.75 / qpmin=0 / qpmax=69 / qpstep=4 / cplxblur=20.0 / qblur=0.5 / ip_ratio=1.40 / pb_ratio=1.30 / aq=2:0.80
Language : English
Default : Yes
Forced : No
Color primaries : BT.709-5, BT.1361, IEC 61966-2-4, SMPTE RP177
Transfer characteristics : BT.709-5, BT.1361
Matrix coefficients : BT.709-5, BT.1361, IEC 61966-2-4 709, SMPTE RP177

Audio
ID : 2
Format : AC-3
Format/Info : Audio Coding 3
Mode extension : CM (complete main)
Format settings, Endianness : Big
Codec ID : A_AC3
Duration : 7mn 15s
Bit rate mode : Constant
Bit rate : 192 Kbps
Channel(s) : 2 channels
Channel positions : Front: L R
Sampling rate : 48.0 KHz
Bit depth : 16 bits
Compression mode : Lossy
Stream size : 9.97 MiB (10%)
Title : rus
Language : Russian
Default : Yes
Forced : No



   Похожие торренты   Торрент   Размер 
В этой теме нет новых непрочитанных сообщений. Учимся вместе: Руби и Йо-йо / Rubi [S02] (2011) WEB-DLRip 720p

157 | 39

4.38 ГБ

В этой теме нет новых непрочитанных сообщений. Учимся вместе: Руби и Йо-йо / Rubi [S03] (2011) WEB-DLRip 720p

86 | 33

6.56 ГБ

В этой теме нет новых непрочитанных сообщений. Учимся вместе: Руби и Йо-йо / Rubi [S01] (2011) WEB-DLRip 720p

203 | 56

4.38 ГБ

В этой теме нет новых непрочитанных сообщений. Учимся вместе: Руби и Йо-йо / Rubi [S03] (2011) WEB-DLRip 720p

23 | 24

12.61 ГБ

В этой теме нет новых непрочитанных сообщений. Учимся вместе: Руби и Йо-йо / Rubi [S03] (2011) WEB-DLRip 720p

36 | 52

12 ГБ

В этой теме нет новых непрочитанных сообщений. Учимся вместе: Руби и Йо-йо / Ruby io io [01-452] (2011-2014) WEB-DLRip от -merci-

22 | 14

17.73 ГБ

В этой теме нет новых непрочитанных сообщений. Полиглот. Учимся китайскому языку [01-56 + другие циклы] (2009-2011) SATRip

370 | 25

5.03 ГБ




Вы не можете начинать темы
Вы не можете отвечать на сообщения
Вы не можете редактировать свои сообщения
Вы не можете удалять свои сообщения
Вы не можете добавлять вложения

Перейти:  
Для Мосгорсуда, Роскомнадзора и рекламодателей: mosgorsud-torrent[собачка]yandex.ru
 Вход
ppkBB3cker v.2 © 2008-2014 @ PPK
[ Time : 0.044s | 15 Queries | GZIP : Off ]

Торрент трекер RUTOR.IN, Не можете зайти на rutor.org? Какой новый адрес рутор? Какое зеркало рутор? Не работает rutor.org и зеркала? Тогда наш торрент специально для вас. Rutor.in неофициальное зеркало rutor. В случае если у Вас заблокирован rutor или вдруг Вы не можете на него зайти, то Вы без труда сможете скачать бесплатно и без рекламы последние новинки кино, игр, сериалов и прочего у нас, на Rutor.in. Не нужно использовать прокси, чтобы зайти на рутор, достаточно воспользоваться нашим ресурсом. Все новые фильмы, игры, сериалы, книги и музыка за 2013 и 2014 годы через торрент бесплатно. Скачивайте фильмы в хорошем качестве, игры для пк, xbox, playstation без регистрации. У нас вы найдете новые Зарубежные сериалы и Русские сериалы 2013, 2014, 2015 годов. Оставайтесь с нами, качайте любимые фильмы, игры, сериалы, книги и музыку.