img image001 image001 image001 image001 image001 image001 image001 image001 image001 image001 image001 image001 image001 image001 image001

Planets Sun Sun Sun
Статистика раздачи
Автор: Nickolas3434 | Размер: 4.19 ГБ | Добавлен: 07 авг 2014
Раздают: 118    Качают: 45
Скачать торрент
Скачать торрент
Описание торрента

СообщениеДобавлено: 07 авг 2014 

Информация о фильме
Название: Будни аэропорта
Год выхода: 2014
Жанр: Мультсериал, познавательный, детский

О фильме:
Влиться в новый коллектив и найти себе там друзей бывает совсем не просто. С этим столкнулся наш главный герой - юный самолётик Винки, который покинул родной дом, чтобы впервые начать самостоятельно работать. Он прибывает в большой аэропорт Манго, где сразу сталкивается с проблемами новичка. Здесь всё такое незнакомое и непривычное, что поначалу Винки не смог даже толком приземлится на взлётную полосу. Более того, другие самолёты оказались не очень приветливы, однако нашлись и те, кто был рад помочь новому сотруднику и вскоре у Винки появились первые друзья.
Страна: Россия
Студия: Теремок ТВ
Продолжительность: ~ 00:08:00 серия
Перевод: Не требуется

Файл
Кодек: XviD / AC3
Качество: WEBRip
Видео: MPEG4, XviD, 720x400 (16:9), 25.000 fps, 1 200 Kbps (0.167 bit/pixel)
Звук: AC-3, 48.0 KHz, 2 ch, 192 Kbps, CBR

General
Complete name : /Будни аэропорта.2014.Xvid.-merci/01. Винки прибывает!.Xvid.avi
Format : AVI
Format/Info : Audio Video Interleave
File size : 86.1 MiB
Duration : 8mn 35s
Overall bit rate : 1 402 Kbps
Writing application : VirtualDubMod 1.5.10.3 | www.virtualdub-fr.org || (build 2550/release)
Writing library : VirtualDubMod build 2550/release

Video
ID : 0
Format : MPEG-4 Visual
Format profile : Advanced Simple@L5
Format settings, BVOP : 2
Format settings, QPel : No
Format settings, GMC : No warppoints
Format settings, Matrix : Default (MPEG)
Codec ID : XVID
Codec ID/Hint : XviD
Duration : 8mn 35s
Bit rate : 1 200 Kbps
Width : 720 pixels
Height : 400 pixels
Display aspect ratio : 16:9
Frame rate : 25.000 fps
Color space : YUV
Chroma subsampling : 4:2:0
Bit depth : 8 bits
Scan type : Progressive
Compression mode : Lossy
Bits/(Pixel*Frame) : 0.167
Stream size : 73.7 MiB (86%)
Writing library : XviD 73

Audio
ID : 1
Format : AC-3
Format/Info : Audio Coding 3
Mode extension : CM (complete main)
Format settings, Endianness : Big
Codec ID : 2000
Duration : 8mn 35s
Bit rate mode : Constant
Bit rate : 192 Kbps
Channel(s) : 2 channels
Channel positions : Front: L R
Sampling rate : 48.0 KHz
Bit depth : 16 bits
Compression mode : Lossy
Stream size : 11.8 MiB (14%)
Alignment : Split accross interleaves
Interleave, duration : 40 ms (1.00 video frame)
Interleave, preload duration : 500 ms



   Похожие торренты   Торрент   Размер 
В этой теме нет новых непрочитанных сообщений. Будни аэропорта [01-40] (2014) WEBRip

93 | 41

3.34 ГБ

В этой теме нет новых непрочитанных сообщений. Будни аэропорта [01-72] (2014) WEBRip

159 | 28

6.02 ГБ

В этой теме нет новых непрочитанных сообщений. Будни аэропорта [01-41] (2014) WEBRip

58 | 18

3.42 ГБ

В этой теме нет новых непрочитанных сообщений. Будни аэропорта [01-39] (2014) WEBRip

55 | 75

3.26 ГБ

В этой теме нет новых непрочитанных сообщений. Будни аэропорта [01-44] (2014) WEBRip

51 | 15

3.67 ГБ

В этой теме нет новых непрочитанных сообщений. Будни аэропорта [01-49] (2014) WEBRip

86 | 43

4.1 ГБ

В этой теме нет новых непрочитанных сообщений. Будни аэропорта [01-30] (2014) WEBRip

479 | 140

2.51 ГБ




Вы не можете начинать темы
Вы не можете отвечать на сообщения
Вы не можете редактировать свои сообщения
Вы не можете удалять свои сообщения
Вы не можете добавлять вложения

Перейти:  
Для Мосгорсуда, Роскомнадзора и рекламодателей: mosgorsud-torrent[собачка]yandex.ru
 Вход
ppkBB3cker v.2 © 2008-2014 @ PPK
[ Time : 0.050s | 15 Queries | GZIP : Off ]

Торрент трекер RUTOR.IN, Не можете зайти на rutor.org? Какой новый адрес рутор? Какое зеркало рутор? Не работает rutor.org и зеркала? Тогда наш торрент специально для вас. Rutor.in неофициальное зеркало rutor. В случае если у Вас заблокирован rutor или вдруг Вы не можете на него зайти, то Вы без труда сможете скачать бесплатно и без рекламы последние новинки кино, игр, сериалов и прочего у нас, на Rutor.in. Не нужно использовать прокси, чтобы зайти на рутор, достаточно воспользоваться нашим ресурсом. Все новые фильмы, игры, сериалы, книги и музыка за 2013 и 2014 годы через торрент бесплатно. Скачивайте фильмы в хорошем качестве, игры для пк, xbox, playstation без регистрации. У нас вы найдете новые Зарубежные сериалы и Русские сериалы 2013, 2014, 2015 годов. Оставайтесь с нами, качайте любимые фильмы, игры, сериалы, книги и музыку.