img image001 image001 image001 image001 image001 image001 image001 image001 image001 image001 image001 image001 image001 image001 image001 image001

Planets Sun Sun Sun
Статистика раздачи
Автор: Nickolas3434 | Размер: 20.56 ГБ | Добавлен: 06 авг 2014
Раздают: 89    Качают: 60
Скачать торрент
Скачать торрент
Описание торрента

СообщениеДобавлено: 06 авг 2014 

Информация о фильме
Название: Оз: Возвращение в Изумрудный Город
Оригинальное название: Legends of Oz: Dorothy's Return
Год выхода: 2013
Жанр: Мультфильм, мюзикл, семейный
Режиссер: Уилл Финн, Дэн Ст. Пьер
В ролях: Лиа Мишель, Патрик Стюарт, Джеймс Белуши, Дэн Эйкройд, Келси Грэммер, Меган Хилти, Хью Дэнси, Оливер Плэтт, Бернадетт Питерс, Мартин Шорт

О фильме:
Дороти снова магическим образом переносится в страну Оз, чтобы спасти от беды ее жителей. Но оказывается, что старые друзья Дороти - Страшила, Железный Дровосек и Храбрый Лев - исчезли. Путешествуя по стране в поисках своих друзей, Дороти встречает новых попутчиков - Капитана Зефира, Фарфоровую Принцессу и филина Савву. Дороти должна помочь таким разным героям объединиться, чтобы одолеть нового злодея - шута Джестера, который хочет захватить страну Оз при помощи черной магии.


Страна: США, Индия
Студия: Prana Animation Studios, Prana Studios, Summertime Entertainment (II)
Продолжительность: 01:28:13
Перевод: Дублированный (Чистый звук)

Файл
Кодек: MPEG-4 AVC
Качество: Blu-Ray Remux 1080p
Видео: 27324 Кбит/с, 1920x1080
Звук: Русский (AC3, 2 ch, 192 Кбит/с), английский (AC3, 6 ch, 448 Кбит/с), (DTS-HD MA, 6 ch, 4011 Кбит/с)
Субтитры: Английские

Семпл

Аудио №1: Russian: 48 kHz, AC3, 2 (L,R) ch, ~192.00 kbps avg - Дублированный (Чистый звук)
Аудио №2: English: 48 kHz, AC3, 3/2 (L,C,R,l,r) + LFE ch, ~448,00 kbps avg - Оригинал
Аудио №3: English: 48 kHz, DTS-HD MA, 3/2 (L,C,R,l,r) + LFE ch, ~4011,00 kbps avg - Оригинал

Субтитры: Английские

Сборка: StarbirS

Формат : Matroska
Версия формата : Version 4 / Version 2
Размер файла : 20,6 Гбайт
Продолжительность : 1 ч. 32 м.
Режим общего битрейта : Переменный
Общий поток : 32,0 Мбит/сек
Название фильма : Legends.Of.Oz.Dorothys.Return.2013.D.(Line).Blu-Ray.Remux.(1080p)
Дата кодирования : UTC 2014-08-06 12:04:43
Программа кодирования : mkvmerge v7.1.0 ('Good Love') 64bit built on Jul 27 2014 13:06:55
Библиотека кодирования : libebml v1.3.0 + libmatroska v1.4.1
DURATION : 01:32:02.528000000
NUMBER_OF_FRAMES : 172579
NUMBER_OF_BYTES : 309261568
_STATISTICS_WRITING_APP : mkvmerge v7.1.0 ('Good Love') 64bit built on Jul 27 2014 13:06:55
_STATISTICS_WRITING_DATE_UTC : 2014-08-06 12:04:43
_STATISTICS_TAGS : BPS DURATION NUMBER_OF_FRAMES NUMBER_OF_BYTES

Видео
Идентификатор : 1
Формат : AVC
Формат/Информация : Advanced Video Codec
Профиль формата : High@L4.1
Параметр CABAC формата : Да
Параметр ReFrames формата : 2 кадра
Параметр GOP формата : M=1, N=10
Идентификатор кодека : V_MPEG4/ISO/AVC
Продолжительность : 1 ч. 32 м.
Вид битрейта : Переменный
Ширина : 1920 пикселей
Высота : 1080 пикселей
Соотношение сторон : 16:9
Режим частоты кадров : Постоянный
Частота кадров : 23,976 кадра/сек
Цветовое пространство : YUV
Субдискретизация насыщенности : 4:2:0
Битовая глубина : 8 бит
Тип развёртки : Прогрессивная
Заголовок : Legends.Of.Oz.Dorothys.Return.2013.D.(Line).Blu-Ray.Remux.(1080p).by.StarbirS
Язык : English
Default : Нет
Forced : Нет
DURATION : 01:32:02.517000000
NUMBER_OF_FRAMES : 132408
NUMBER_OF_BYTES : 18861757845
_STATISTICS_WRITING_APP : mkvmerge v7.1.0 ('Good Love') 64bit built on Jul 27 2014 13:06:55
_STATISTICS_WRITING_DATE_UTC : 2014-08-06 12:04:43
_STATISTICS_TAGS : BPS DURATION NUMBER_OF_FRAMES NUMBER_OF_BYTES

Аудио #1
Идентификатор : 2
Формат : AC-3
Формат/Информация : Audio Coding 3
Расширение режима : CM (complete main)
Параметр Endianness формата : Big
Идентификатор кодека : A_AC3
Продолжительность : 1 ч. 32 м.
Вид битрейта : Постоянный
Битрейт : 192 Кбит/сек
Каналы : 2 канала
Расположение каналов : Front: L R
Частота : 48,0 КГц
Битовая глубина : 16 бит
Метод сжатия : С потерями
Размер потока : 126 Мбайт (1%)
Заголовок : Дублированный (Чистый звук)
Язык : Russian
Default : Да
Forced : Нет
DURATION : 01:32:02.517000000
NUMBER_OF_FRAMES : 517736
NUMBER_OF_BYTES : 2768729136
_STATISTICS_WRITING_APP : mkvmerge v7.1.0 ('Good Love') 64bit built on Jul 27 2014 13:06:55
_STATISTICS_WRITING_DATE_UTC : 2014-08-06 12:04:43
_STATISTICS_TAGS : BPS DURATION NUMBER_OF_FRAMES NUMBER_OF_BYTES

Аудио #2
Идентификатор : 3
Формат : AC-3
Формат/Информация : Audio Coding 3
Расширение режима : CM (complete main)
Параметр Endianness формата : Big
Идентификатор кодека : A_AC3
Продолжительность : 1 ч. 32 м.
Вид битрейта : Постоянный
Битрейт : 448 Кбит/сек
Каналы : 6 каналов
Расположение каналов : Front: L C R, Side: L R, LFE
Частота : 48,0 КГц
Битовая глубина : 16 бит
Метод сжатия : С потерями
Размер потока : 295 Мбайт (1%)
Заголовок : AC3 5.1
Язык : English
Default : Нет
Forced : Нет

Аудио #3
Идентификатор : 4
Формат : DTS
Формат/Информация : Digital Theater Systems
Профиль формата : MA / Core
Режим : 16
Параметр Endianness формата : Big
Идентификатор кодека : A_DTS
Продолжительность : 1 ч. 32 м.
Вид битрейта : Переменный
Битрейт : Неизвестно / 1509 Кбит/сек
Каналы : 6 каналов
Расположение каналов : Front: L C R, Side: L R, LFE
Частота : 48,0 КГц
Битовая глубина : 24 бит
Метод сжатия : Без потерь / Lossy
Заголовок : DTS-HD MA 5.1
Язык : English
Default : Нет
Forced : Нет

Текст
Идентификатор : 5
Формат : UTF-8
Идентификатор кодека : S_TEXT/UTF8
Идентификатор кодека/Информация : UTF-8 Plain Text
Язык : English
Default : Да
Forced : Нет

Меню
00:00:00.000 : en:Chapter 01
00:03:40.970 : en:Chapter 02
00:05:14.397 : en:Chapter 03
00:08:56.786 : en:Chapter 04
00:12:02.012 : en:Chapter 05
00:15:57.331 : en:Chapter 06
00:19:32.629 : en:Chapter 07
00:22:26.887 : en:Chapter 08
00:25:17.182 : en:Chapter 09
00:28:02.055 : en:Chapter 10
00:29:57.337 : en:Chapter 11
00:33:33.761 : en:Chapter 12
00:35:27.125 : en:Chapter 13
00:38:47.533 : en:Chapter 14
00:43:44.580 : en:Chapter 15
00:46:06.764 : en:Chapter 16
00:48:36.580 : en:Chapter 17
00:51:07.647 : en:Chapter 18
00:54:42.737 : en:Chapter 19
00:56:01.441 : en:Chapter 20
00:59:25.853 : en:Chapter 21
01:04:15.685 : en:Chapter 22
01:06:55.011 : en:Chapter 23
01:11:13.936 : en:Chapter 24
01:14:10.904 : en:Chapter 25
01:17:43.367 : en:Chapter 26
01:21:38.143 : en:Chapter 27
01:24:06.332 : en:Chapter 28





   Похожие торренты   Торрент   Размер 
В этой теме нет новых непрочитанных сообщений. Оз: Возвращение в Изумрудный Город / Legends of Oz: Dorothy's Return (2013) BDRip 1080p от Ash61 | 3D-Video | halfOU

546 | 68

7.41 ГБ

В этой теме нет новых непрочитанных сообщений. Оз: Возвращение в Изумрудный Город / Legends of Oz: Dorothy's Return (2013) HDTVRip | Звук с TS

492 | 100

703.03 МБ

В этой теме нет новых непрочитанных сообщений. Оз: Возвращение в Изумрудный Город / Legends of Oz: Dorothy's Return (2013) HDTVRip | Звук с TS

2578 | 397

1.37 ГБ

В этой теме нет новых непрочитанных сообщений. Оз: Возвращение в Изумрудный Город / Legends of Oz: Dorothy's Return (2013) BDRip от MediaClub | D | Лицензия

309 | 17

749.34 МБ

В этой теме нет новых непрочитанных сообщений. Оз: Возвращение в Изумрудный Город / Legends of Oz: Dorothy's Return (2013) BDRip-AVC | Чистый звук

751 | 108

1.99 ГБ

В этой теме нет новых непрочитанных сообщений. Оз: Возвращение в Изумрудный Город / Legends of Oz: Dorothy's Return (2013) HDRip | Чистый звук

2613 | 480

1.37 ГБ

В этой теме нет новых непрочитанных сообщений. Оз: Возвращение в Изумрудный Город / Legends of Oz: Dorothy's Return (2013) DVD5 от New-Team | D | Лицензия

113 | 31

4.03 ГБ




Вы не можете начинать темы
Вы не можете отвечать на сообщения
Вы не можете редактировать свои сообщения
Вы не можете удалять свои сообщения
Вы не можете добавлять вложения

Перейти:  
 Вход
ppkBB3cker v.2 © 2008-2014 @ PPK
[ Time : 0.028s | 16 Queries | GZIP : Off ]

cron