img image001 image001 image001 image001 image001 image001 image001 image001 image001 image001 image001 image001 image001 image001 image001

Planets Sun Sun Sun
Статистика раздачи
Автор: Nickolas3434 | Размер: 5.27 ГБ | Добавлен: 10 авг 2014
Раздают: 377    Качают: 66
Скачать торрент
Скачать торрент
Описание торрента

СообщениеДобавлено: 10 авг 2014 

Информация о фильме
Название: Оз: Возвращение в Изумрудный Город
Оригинальное название: Legends of Oz: Dorothy's Return
Год выхода: 2013
Жанр: Мультфильм, мюзикл, семейный
Режиссер: Уилл Финн, Дэн Ст. Пьер
В ролях: Лиа Мишель, Патрик Стюарт, Джеймс Белуши, Дэн Эйкройд, Келси Грэммер, Меган Хилти, Хью Дэнси, Оливер Плэтт, Бернадетт Питерс, Мартин Шорт
О фильме:
Дороти снова магическим образом переносится в страну Оз, чтобы спасти от беды ее жителей. Но оказывается, что старые друзья Дороти - Страшила, Железный Дровосек и Храбрый Лев - исчезли. Путешествуя по стране в поисках своих друзей, Дороти встречает новых попутчиков - Капитана Зефира, Фарфоровую Принцессу и филина Савву. Дороти должна помочь таким разным героям объединиться, чтобы одолеть нового злодея - шута Джестера, который хочет захватить страну Оз при помощи черной магии.

Страна: США, Индия
Студия: Prana Animation Studios, Prana Studios, Summertime Entertainment (II)
Продолжительность: 01:28:13
Перевод: Дублированный (Чистый звук)
Файл
Кодек: MPEG-4 AVC
Качество: BDRip 720p
Видео: 6500 Кбит/с, 1280x720
Звук: Русский (AC3, 2 ch, 192 Кбит/с), английский (DTS, 6 ch, 1509 Кбит/с)
Субтитры: Английские
Семпл
Рип от HDWing
Аудио №1: Russian: 48 kHz, AC3, 2 (L,R) ch, ~192.00 kbps avg - Дублированный (Чистый звук)
Аудио №2: English: 48 kHz, DTS, 3/2 (L,C,R,l,r) + LFE ch, ~1509,00 kbps avg - Оригинал
Субтитры: Английские
Сборка StarbirS

Формат : Matroska
Версия формата : Version 4 / Version 2
Размер файла : 5,27 Гбайт
Продолжительность : 1 ч. 32 м.
Общий поток : 8205 Кбит/сек
Название фильма : Legends.Of.Oz.Dorothys.Return.2014.x264.D.(Line).BDRip.(720p).HDWing
Дата кодирования : UTC 2014-08-08 19:02:25
Программа кодирования : mkvmerge v7.1.0 ('Good Love') 64bit built on Jul 27 2014 13:06:55
Библиотека кодирования : libebml v1.3.0 + libmatroska v1.4.1
_STATISTICS_WRITING_APP : mkvmerge v7.1.0 ('Good Love') 64bit built on Jul 27 2014 13:06:55
_STATISTICS_WRITING_DATE_UTC : 2014-08-08 19:02:25
_STATISTICS_TAGS : BPS DURATION NUMBER_OF_FRAMES NUMBER_OF_BYTES
DURATION : 01:32:02.496000000
NUMBER_OF_FRAMES : 172578
NUMBER_OF_BYTES : 132539904
Видео
Идентификатор : 1
Формат : AVC
Формат/Информация : Advanced Video Codec
Профиль формата : High@L4.1
Параметр CABAC формата : Да
Параметр ReFrames формата : 9 кадров
Идентификатор кодека : V_MPEG4/ISO/AVC
Продолжительность : 1 ч. 32 м.
Битрейт : 6500 Кбит/сек
Ширина : 1280 пикселей
Высота : 720 пикселей
Соотношение сторон : 16:9
Режим частоты кадров : Постоянный
Частота кадров : 23,976 кадра/сек
Цветовое пространство : YUV
Субдискретизация насыщенности : 4:2:0
Битовая глубина : 8 бит
Тип развёртки : Прогрессивная
Бит/(Пиксели*Кадры) : 0.294
Размер потока : 4,08 Гбайт (77%)
Заголовок : Legends.Of.Oz.Dorothys.Return.2014.x264.D.(Line).BDRip.(720p).HDWing
Библиотека кодирования : x264 core 142 r2431+42 c69a006 tMod [8-bit@all X86_64]
Настройки программы : cabac=1 / ref=9 / deblock=1:-3:-3 / analyse=0x3:0x113 / me=umh / subme=11 / psy=1 / fade_compensate=0.00 / psy_rd=1.00:0.10 / mixed_ref=1 / me_range=48 / chroma_me=1 / trellis=2 / 8x8dct=1 / cqm=0 / deadzone=21,11 / fast_pskip=0 / chroma_qp_offset=-3 / threads=36 / lookahead_threads=3 / sliced_threads=0 / nr=0 / decimate=0 / interlaced=0 / bluray_compat=0 / constrained_intra=0 / fgo=0 / bframes=8 / b_pyramid=2 / b_adapt=2 / b_bias=0 / direct=3 / weightb=1 / open_gop=0 / weightp=2 / keyint=360 / keyint_min=2 / scenecut=40 / intra_refresh=0 / rc_lookahead=0 / rc=2pass / mbtree=0 / bitrate=6500 / ratetol=1.0 / qcomp=0.70 / qpmin=0:0:0 / qpmax=69:69:69 / qpstep=4 / cplxblur=20.0 / qblur=0.5 / vbv_maxrate=50000 / vbv_bufsize=30000 / nal_hrd=none / filler=0 / ip_ratio=1.23 / pb_ratio=1.15 / aq=1:0.80 / aq-sensitivity=10.00 / aq-factor=1.00:1.00:1.00 / aq2=0 / aq3=0
Язык : English
Default : Да
Forced : Нет
_STATISTICS_WRITING_APP : mkvmerge v7.1.0 ('Good Love') 64bit built on Jul 27 2014 13:06:55
_STATISTICS_WRITING_DATE_UTC : 2014-08-08 19:02:25
_STATISTICS_TAGS : BPS DURATION NUMBER_OF_FRAMES NUMBER_OF_BYTES
DURATION : 01:32:02.476000000
NUMBER_OF_FRAMES : 132407
NUMBER_OF_BYTES : 4487583937
Аудио #1
Идентификатор : 2
Формат : AC-3
Формат/Информация : Audio Coding 3
Расширение режима : CM (complete main)
Параметр Endianness формата : Big
Идентификатор кодека : A_AC3
Продолжительность : 1 ч. 32 м.
Вид битрейта : Постоянный
Битрейт : 192 Кбит/сек
Каналы : 2 канала
Расположение каналов : Front: L R
Частота : 48,0 КГц
Битовая глубина : 16 бит
Метод сжатия : С потерями
Размер потока : 126 Мбайт (2%)
Заголовок : Дублированный (Чистый звук)
Язык : Russian
Default : Да
Forced : Нет
Аудио #2
Идентификатор : 3
Формат : DTS
Формат/Информация : Digital Theater Systems
Режим : 16
Параметр Endianness формата : Big
Идентификатор кодека : A_DTS
Продолжительность : 1 ч. 32 м.
Вид битрейта : Постоянный
Битрейт : 1509 Кбит/сек
Каналы : 6 каналов
Расположение каналов : Front: L C R, Side: L R, LFE
Частота : 48,0 КГц
Битовая глубина : 24 бит
Метод сжатия : С потерями
Размер потока : 993 Мбайт (18%)
Заголовок : Оригинал
Язык : English
Default : Нет
Forced : Нет
Текст
Идентификатор : 4
Формат : UTF-8
Идентификатор кодека : S_TEXT/UTF8
Идентификатор кодека/Информация : UTF-8 Plain Text
Default : Да
Forced : Нет
Меню
00:00:00.000 : en:Chapter 01
00:03:40.970 : en:Chapter 02
00:05:14.397 : en:Chapter 03
00:08:56.786 : en:Chapter 04
00:12:02.012 : en:Chapter 05
00:15:57.331 : en:Chapter 06
00:19:32.629 : en:Chapter 07
00:22:26.887 : en:Chapter 08
00:25:17.182 : en:Chapter 09
00:28:02.055 : en:Chapter 10
00:29:57.337 : en:Chapter 11
00:33:33.761 : en:Chapter 12
00:35:27.125 : en:Chapter 13
00:38:47.533 : en:Chapter 14
00:43:44.580 : en:Chapter 15
00:46:06.764 : en:Chapter 16
00:48:36.580 : en:Chapter 17
00:51:07.647 : en:Chapter 18
00:54:42.737 : en:Chapter 19
00:56:01.441 : en:Chapter 20
00:59:25.853 : en:Chapter 21
01:04:15.685 : en:Chapter 22
01:06:55.011 : en:Chapter 23
01:11:13.936 : en:Chapter 24
01:14:10.904 : en:Chapter 25
01:17:43.367 : en:Chapter 26
01:21:38.143 : en:Chapter 27
01:24:06.332 : en:Chapter 28





   Похожие торренты   Торрент   Размер 
В этой теме нет новых непрочитанных сообщений. Оз: Возвращение в Изумрудный Город / Legends of Oz: Dorothy's Return (2013) BDRip-AVC | Чистый звук

751 | 108

1.99 ГБ

В этой теме нет новых непрочитанных сообщений. Оз: Возвращение в Изумрудный Город / Legends of Oz: Dorothy's Return (2013) BDRip-AVC от ExKinoRay | Чистый звук

118 | 54

1.37 ГБ

В этой теме нет новых непрочитанных сообщений. Оз: Возвращение в Изумрудный Город / Legends of Oz: Dorothy's Return (2013) HDRip | Чистый звук

2613 | 480

1.37 ГБ

В этой теме нет новых непрочитанных сообщений. Оз: Возвращение в Изумрудный Город / Legends of Oz: Dorothy's Return (2013) HDTVRip | Звук с TS

2578 | 397

1.37 ГБ

В этой теме нет новых непрочитанных сообщений. Оз: Возвращение в Изумрудный Город / Legends of Oz: Dorothy's Return (2013) HDTVRip | Звук с TS

492 | 100

703.03 МБ

В этой теме нет новых непрочитанных сообщений. Оз: Возвращение в Изумрудный Город / Legends of Oz: Dorothy's Return (2013) BDRip 720p от Leonardo and Scarabey

818 | 65

2.85 ГБ

В этой теме нет новых непрочитанных сообщений. Оз: Возвращение в Изумрудный Город / Legends of Oz: Dorothy's Return (2013) BDRip 720p от HELLYWOOD | Лицензия

231 | 55

4.25 ГБ




Вы не можете начинать темы
Вы не можете отвечать на сообщения
Вы не можете редактировать свои сообщения
Вы не можете удалять свои сообщения
Вы не можете добавлять вложения

Перейти:  
Для Мосгорсуда, Роскомнадзора и рекламодателей: mosgorsud-torrent[собачка]yandex.ru
 Вход
ppkBB3cker v.2 © 2008-2014 @ PPK
[ Time : 0.056s | 15 Queries | GZIP : On ]

Торрент трекер RUTOR.IN, Не можете зайти на rutor.org? Какой новый адрес рутор? Какое зеркало рутор? Не работает rutor.org и зеркала? Тогда наш торрент специально для вас. Rutor.in неофициальное зеркало rutor. В случае если у Вас заблокирован rutor или вдруг Вы не можете на него зайти, то Вы без труда сможете скачать бесплатно и без рекламы последние новинки кино, игр, сериалов и прочего у нас, на Rutor.in. Не нужно использовать прокси, чтобы зайти на рутор, достаточно воспользоваться нашим ресурсом. Все новые фильмы, игры, сериалы, книги и музыка за 2013 и 2014 годы через торрент бесплатно. Скачивайте фильмы в хорошем качестве, игры для пк, xbox, playstation без регистрации. У нас вы найдете новые Зарубежные сериалы и Русские сериалы 2013, 2014, 2015 годов. Оставайтесь с нами, качайте любимые фильмы, игры, сериалы, книги и музыку.