img image001 image001 image001 image001 image001 image001 image001 image001 image001 image001 image001 image001 image001 image001 image001

Planets Sun Sun Sun
Статистика раздачи
Автор: Nickolas3434 | Размер: 11.4 ГБ | Добавлен: 13 авг 2014
Раздают: 66    Качают: 21
Скачать торрент
Скачать торрент
Описание торрента

СообщениеДобавлено: 13 авг 2014 

Приключения мистера Пибоди и Шермана / Mr. Peabody & Sherman (2014) BDRip 1080p
от HQCLUB

Информация о фильме:
Название: Приключения мистера Пибоди и Шермана
Оригинальное название: Mr. Peabody & Sherman
Год выхода: 2014
Жанр: мультфильм, фантастика, комедия, приключения, семейный
Режиссер: Роб Минкофф
Роли озвучивали: Тай Бурелл, Макс Чарльз, Эриель Винтер, Стефен Колбер, Лесли Манн, Эллисон Дженни, Стэнли Туччи, Том МакГрат, Лэйк Белл, Зак Каллисон
О мультфильме: Мистер Пибоди — бизнесмен, изобретатель, ученый, нобелевский лауреат, гурман, двукратный олимпийский чемпион и гений… который кроме всего прочего является собакой. При помощи своего самого неординарного изобретения — машины ВЕЙБЕК — мистер Пибоди и его приемный сын Шерман мгновенно перемещаются в прошлое, где становятся свидетелями самых важных исторических событий и общаются с известными историческими персонажами. Но когда Шерман нарушает правила путешествий во времени, нашим героям приходится вновь отправиться в путь — на сей раз с целью восстановления цепи исторических событий и спасения будущего. Кроме того, мистеру Пибоди предстоит справиться с самой сложной для него задачей — стать настоящим отцом для Шермана.
«Наперегонки с историей»


Релиз от -
Автор рипа: Elheym
Выпущено: США, DreamWorks Animation, Pacific Data Images (PDI), Bullwinkle Studios
Продолжительность: 01:32:29
Перевод: профессиональный (полное дублирование) + дубляж (украинский) + оригинал (английский)
Субтитры: русские (полные), украинские (полные), английские (полные)
Главы: присутствуют, сохранены оригинальные
Файл:
Формат: MKV
Качество: BDRip 1080p (источник: / Blu-ray Disc EUR / 1080p)
Видео: 1920x1040 (1.85:1), 23.976 fps, MPEG-4 AVC, ~14920 kbps avg, 0.312 bit/pixel
Аудио #1: 48 kHz, DTS Dolby Digital, 3/2 (L,C,R,l,r) + LFE ch, ~768 kbps (DUB)
Аудио #2: 48 kHz, AC3 Dolby Digital, 3/2 (L,C,R,l,r) + LFE ch, ~448 kbps (UKR.DUB)
Аудио #3: 48 kHz, DTS Dolby Digital, 3/2 (L,C,R,l,r) + LFE ch, ~1509 kbps (ENG)
Размер: 11.4 GB
Сэмпл: скачать

Уникальный идентификатор : 236317632710662452278744516591245105167 (0xB1C91EDA8E9F2D59BB4B9633C5A4980F)
Полное имя : Mr.Peabody.&.Sherman.2014.1080p.BluRay.Rus.Ukr.Eng.-HQCLUB.mkv
Формат : Matroska
Версия формата : Version 2
Размер файла : 11,4 Гбайт
Продолжительность : 1 ч. 32 м.
Общий поток : 17,6 Мбит/сек
Дата кодирования : UTC 2014-08-12 10:18:03
Программа кодирования : mkvmerge v5.2.0 ('I can't explain') built on Dec 18 2011 18:12:03
Библиотека кодирования : libebml v1.2.3 + libmatroska v1.3.0
Видео
Идентификатор : 1
Формат : AVC
Формат/Информация : Advanced Video Codec
Профиль формата : High@L4.1
Параметр CABAC формата : Да
Параметр ReFrames формата : 3 кадра
Идентификатор кодека : V_MPEG4/ISO/AVC
Продолжительность : 1 ч. 32 м.
Битрейт : 14,9 Мбит/сек
Ширина : 1920 пикселей
Высота : 1040 пикселей
Соотношение сторон : 1,85:1
Режим частоты кадров : Постоянный
Частота кадров : 23,976 кадра/сек
Цветовое пространство : YUV
Субдискретизация насыщенности : 4:2:0
Битовая глубина : 8 бит
Тип развёртки : Прогрессивная
Бит/(Пиксели*Кадры) : 0.312
Размер потока : 9,41 Гбайт (83%)
Заголовок : Приключения мистера Пибоди и Шермана / Mr. Peabody & Sherman (2014) BDRip 1080p by HQCLUB [Elheym]
Библиотека кодирования : x264 core 142 r2453 ea0ca51
Настройки программы : cabac=1 / ref=4 / deblock=1:-3:-2 / analyse=0x3:0x113 / me=umh / subme=11 / psy=1 / psy_rd=1.00:0.00 / mixed_ref=1 / me_range=32 / chroma_me=1 / trellis=2 / 8x8dct=1 / cqm=0 / deadzone=21,11 / fast_pskip=1 / chroma_qp_offset=-4 / threads=6 / lookahead_threads=1 / sliced_threads=0 / nr=0 / decimate=1 / interlaced=0 / bluray_compat=0 / constrained_intra=0 / bframes=8 / b_pyramid=1 / b_adapt=2 / b_bias=0 / direct=3 / weightb=1 / open_gop=0 / weightp=2 / keyint=240 / keyint_min=23 / scenecut=40 / intra_refresh=0 / rc_lookahead=40 / rc=2pass / mbtree=0 / bitrate=14920 / ratetol=1.0 / qcomp=0.60 / qpmin=10 / qpmax=69 / qpstep=4 / cplxblur=20.0 / qblur=0.5 / vbv_maxrate=50000 / vbv_bufsize=62500 / nal_hrd=none / filler=0 / ip_ratio=1.40 / pb_ratio=1.30 / aq=1:0.90
Язык : English
Default : Да
Forced : Нет
Аудио #1
Идентификатор : 2
Формат : DTS
Формат/Информация : Digital Theater Systems
Режим : 16
Параметр Endianness формата : Big
Идентификатор кодека : A_DTS
Продолжительность : 1 ч. 32 м.
Вид битрейта : Постоянный
Битрейт : 768 Кбит/сек
Каналы : 6 каналов
Расположение каналов : Front: L C R, Side: L R, LFE
Частота : 48,0 КГц
Битовая глубина : 24 бит
Метод сжатия : С потерями
Размер потока : 508 Мбайт (4%)
Заголовок : DTS 5.1 @ 768 kbps - Dub, BD EUR
Язык : Russian
Default : Нет
Forced : Нет
Аудио #2
Идентификатор : 3
Формат : AC-3
Формат/Информация : Audio Coding 3
Расширение режима : CM (complete main)
Параметр Endianness формата : Big
Идентификатор кодека : A_AC3
Продолжительность : 1 ч. 32 м.
Вид битрейта : Постоянный
Битрейт : 448 Кбит/сек
Каналы : 6 каналов
Расположение каналов : Front: L C R, Side: L R, LFE
Частота : 48,0 КГц
Битовая глубина : 16 бит
Метод сжатия : С потерями
Размер потока : 296 Мбайт (3%)
Заголовок : АС3 5.1 @ 448 kbps - Dub, BD EUR
Язык : Ukrainian
Default : Нет
Forced : Нет
Аудио #3
Идентификатор : 4
Формат : DTS
Формат/Информация : Digital Theater Systems
Профиль формата : ES
Режим : 16
Параметр Endianness формата : Big
Идентификатор кодека : A_DTS
Продолжительность : 1 ч. 32 м.
Вид битрейта : Постоянный
Битрейт : 1509 Кбит/сек
Каналы : 6 каналов
Расположение каналов : Front: L C R, Side: L R, LFE
Частота : 48,0 КГц
Битовая глубина : 24 бит
Метод сжатия : С потерями
Размер потока : 998 Мбайт (9%)
Заголовок : DTS 5.1 @ 1509 kbps - Original
Язык : English
Default : Нет
Forced : Нет
Текст #1
Идентификатор : 5
Формат : UTF-8
Идентификатор кодека : S_TEXT/UTF8
Идентификатор кодека/Информация : UTF-8 Plain Text
Заголовок : Full
Язык : Russian
Default : Нет
Forced : Нет
Текст #2
Идентификатор : 6
Формат : UTF-8
Идентификатор кодека : S_TEXT/UTF8
Идентификатор кодека/Информация : UTF-8 Plain Text
Заголовок : Full
Язык : Ukrainian
Default : Нет
Forced : Нет
Текст #3
Идентификатор : 7
Формат : UTF-8
Идентификатор кодека : S_TEXT/UTF8
Идентификатор кодека/Информация : UTF-8 Plain Text
Заголовок : Full
Язык : English
Default : Нет
Forced : Нет
Меню
00:00:00.000 : :Chapter 01
00:03:48.645 : :Chapter 02
00:07:12.223 : :Chapter 03
00:11:02.495 : :Chapter 04
00:13:30.017 : :Chapter 05
00:17:29.465 : :Chapter 06
00:21:48.515 : :Chapter 07
00:26:39.306 : :Chapter 08
00:28:40.176 : :Chapter 09
00:30:53.101 : :Chapter 10
00:33:57.452 : :Chapter 11
00:35:29.919 : :Chapter 12
00:37:47.181 : :Chapter 13
00:41:27.651 : :Chapter 14
00:44:47.685 : :Chapter 15
00:48:16.351 : :Chapter 16
00:51:48.980 : :Chapter 17
00:54:56.543 : :Chapter 18
00:58:32.800 : :Chapter 19
01:00:49.187 : :Chapter 20
01:02:53.186 : :Chapter 21
01:04:39.083 : :Chapter 22
01:08:22.264 : :Chapter 23
01:11:13.727 : :Chapter 24
01:14:52.654 : :Chapter 25
01:20:27.447 : :Chapter 26
01:21:40.312 : :Chapter 27
01:22:39.579 : :Chapter 28
01:32:29.293 : :Chapter 29

x264 [info]: frame I:1082 Avg QP:13.37 size:260917
x264 [info]: frame P:48486 Avg QP:14.39 size:119364
x264 [info]: frame B:83489 Avg QP:15.77 size: 51249
x264 [info]: consecutive B-frames: 11.9% 9.9% 28.7% 27.4% 11.9% 8.1% 0.9% 0.5% 0.8%
x264 [info]: ref P L0: 70.2% 8.2% 18.6% 2.9% 0.0%
x264 [info]: ref B L0: 89.6% 10.4%
x264 [info]: ref B L1: 91.3% 8.7%



   Похожие торренты   Торрент   Размер 
В этой теме нет новых непрочитанных сообщений. Приключения мистера Пибоди и Шермана / Mr. Peabody & Sherman (2014) BDRip от HQCLUB | Лицензия

3149 | 170

1.45 ГБ

В этой теме нет новых непрочитанных сообщений. Приключения мистера Пибоди и Шермана / Mr. Peabody & Sherman (2014) BDRip-AVC от HQCLUB | Лицензия

225 | 13

2.73 ГБ

В этой теме нет новых непрочитанных сообщений. Приключения мистера Пибоди и Шермана / Mr. Peabody & Sherman (2014) BDRip 720p от HQCLUB | Лицензия

78 | 11

5.93 ГБ

В этой теме нет новых непрочитанных сообщений. Приключения мистера Пибоди и Шермана / Mr. Peabody & Sherman (2014) BDRip 1080p | 3D-Video | halfOU | Лицензия

328 | 78

9.22 ГБ

В этой теме нет новых непрочитанных сообщений. Приключения мистера Пибоди и Шермана / Mr. Peabody & Sherman (2014) BDRip 1080p

305 | 37

8.54 ГБ

В этой теме нет новых непрочитанных сообщений. Приключения мистера Пибоди и Шермана / Mr. Peabody & Sherman (2014) BDRip от MediaClub | D | Лицензия

217 | 19

746.62 МБ

В этой теме нет новых непрочитанных сообщений. Приключения мистера Пибоди и Шермана / Mr. Peabody & Sherman (2014) BDRip-AVC от HELLYWOOD | Лицензия

452 | 25

2.18 ГБ




Вы не можете начинать темы
Вы не можете отвечать на сообщения
Вы не можете редактировать свои сообщения
Вы не можете удалять свои сообщения
Вы не можете добавлять вложения

Перейти:  
Для Мосгорсуда, Роскомнадзора и рекламодателей: mosgorsud-torrent[собачка]yandex.ru
 Вход
ppkBB3cker v.2 © 2008-2014 @ PPK
[ Time : 0.023s | 14 Queries | GZIP : Off ]

Торрент трекер RUTOR.IN, Не можете зайти на rutor.org? Какой новый адрес рутор? Какое зеркало рутор? Не работает rutor.org и зеркала? Тогда наш торрент специально для вас. Rutor.in неофициальное зеркало rutor. В случае если у Вас заблокирован rutor или вдруг Вы не можете на него зайти, то Вы без труда сможете скачать бесплатно и без рекламы последние новинки кино, игр, сериалов и прочего у нас, на Rutor.in. Не нужно использовать прокси, чтобы зайти на рутор, достаточно воспользоваться нашим ресурсом. Все новые фильмы, игры, сериалы, книги и музыка за 2013 и 2014 годы через торрент бесплатно. Скачивайте фильмы в хорошем качестве, игры для пк, xbox, playstation без регистрации. У нас вы найдете новые Зарубежные сериалы и Русские сериалы 2013, 2014, 2015 годов. Оставайтесь с нами, качайте любимые фильмы, игры, сериалы, книги и музыку.