img image001 image001 image001 image001 image001 image001 image001 image001 image001 image001 image001 image001 image001 image001 image001

Planets Sun Sun Sun
Статистика раздачи
Автор: Nickolas3434 | Размер: 5.08 ГБ | Добавлен: 21 авг 2014
Раздают: 154    Качают: 29
Скачать торрент
Скачать торрент
Описание торрента

СообщениеДобавлено: 21 авг 2014 

Информация о фильме
Название: Лего. Фильм
Оригинальное название: The Lego Movie
Год выхода: 2014
Жанр: Мультфильм, боевик, комедия
Режиссер: Фил Лорд, Крис Миллер, Крис МакКэй
В ролях: Уилл Феррелл, Лиам Нисон, Элисон Бри, Морган Фримен, Элизабет Бэнкс, Крис Прэтт, Уилл Арнетт, Ник Офферман, Джэдон Сэнд
О фильме: Вселенная Лего всегда была очень разной и многоплановой. В ней существовали разные лего-люди, возвышались разные строения в больших лего-городах, ездили быстрые лего-машины. И все эти миры существовали каждый отдельно. В каждом из них развивалась своя история. И лего-злодеи тоже всегда здесь были. Но с ними отлично умели справляться супергерои (конечно же, они тоже были из наборов лего). Но в какой-то момент в голову одному из злодеев пришла мысль, что весь лего-мир должен стать единым и принадлежать только ему! И лишь он один будет править всеми лего-подданными, как ему захочется. И, чтобы осущиствить свой коварный план, этот диктатор решил склеить все отдельные части лего-мира. Вот уж тогда точно никто никуда от него не денется! Но свободные жители не хотят идти в рабство к одному выскочке! Чтобы предотвратить беду, необходимо найти смельчаков, которые разрушат черные замыслы и даже смогут пожертвовать своей жизнью, чтобы спасти лего-народ. Вот одним из таких героев становится обычная лего-фигурка, которую все знали, как Эммета. Он всю свою игрушечную жизнь занимается строительством домов согласно инструкциям. Но теперь, в новом для себя образе героя, Эммету придется действовать в команде не по инструкции, а согласно своей интуиции и сообразительности.

Выпущено: США
Студия: Animal Logic, LEGO, Lin Pictures, Vertigo Entertainment, Village Roadshow Pictures, Warner Bros. Pictures
Продолжительность: 01:40:33
Перевод: Дублированный, авторский
Файл
Кодек: MPEG-4 AVC
Качество: BDRip 720p
Видео: 4857 Кбит/с, 1280x534
Звук:
Аудио #1: Русский (AC3, 6 ch, 448 Кбит/с) / Дублированный
Аудио #2: Украинский (AC3, 6 ch, 448 Кбит/с) / Дублированный
Аудио #3: Русский (AC3, 6 ch, 448 Кбит/с) / Авторский одноголосый (Сербин)
Аудио #4: Русский (AC3, 6 ch, 448 Кбит/с) / Авторский одноголосый (Живов)
Аудио #5: Английский (AC3, 6 ch, 448 Кбит/с)
Субтитры: Русские, укринские, английские
Общее
Уникальный идентификатор : 220951085599962216895622830949952436834 (0xA639A19655D132E9AF8120A41EA4BA62)
Полное имя : D:В планахГотовоеLego.Fil'm.2014.x264.BDRip.720p_MediaClub.mkv
Формат : Matroska
Версия формата : Version 4 / Version 2
Размер файла : 5,08 Гбайт
Продолжительность : 1 ч. 40 м.
Общий поток : 7235 Кбит/сек
Название фильма : Orphan Black
Дата кодирования : UTC 2014-07-04 13:36:44
Программа кодирования : mkvmerge v6.9.1 ('Blue Panther') 64bit built on Apr 18 2014 18:23:38
Библиотека кодирования : libebml v1.3.0 + libmatroska v1.4.1
Видео
Идентификатор : 1
Формат : AVC
Формат/Информация : Advanced Video Codec
Профиль формата : High@L4.1
Параметр CABAC формата : Да
Параметр ReFrames формата : 12 кадров
Идентификатор кодека : V_MPEG4/ISO/AVC
Продолжительность : 1 ч. 40 м.
Битрейт : 4851 Кбит/сек
Ширина : 1280 пикселей
Высота : 534 пикселя
Соотношение сторон : 2,40:1
Режим частоты кадров : Постоянный
Частота кадров : 23,976 кадра/сек
Цветовое пространство : YUV
Субдискретизация насыщенности : 4:2:0
Битовая глубина : 8 бит
Тип развёртки : Прогрессивная
Бит/(Пиксели*Кадры) : 0.296
Размер потока : 3,41 Гбайт (67%)
Библиотека кодирования : x264 core 142 r2409+42 04be48a tMod [8-bit@4:2:0 X86_64]
Настройки программы : cabac=1 / ref=12 / deblock=1:-1:-1 / analyse=0x3:0x113 / me=umh / subme=11 / psy=1 / fade_compensate=0.00 / psy_rd=0.70:0.10 / mixed_ref=1 / me_range=32 / chroma_me=1 / trellis=2 / 8x8dct=1 / cqm=0 / deadzone=21,11 / fast_pskip=0 / chroma_qp_offset=-3 / threads=18 / lookahead_threads=3 / sliced_threads=0 / nr=0 / decimate=0 / interlaced=0 / bluray_compat=0 / constrained_intra=0 / fgo=0 / bframes=8 / b_pyramid=2 / b_adapt=2 / b_bias=0 / direct=3 / weightb=1 / open_gop=0 / weightp=2 / keyint=240 / keyint_min=24 / scenecut=40 / intra_refresh=0 / rc_lookahead=60 / rc=crf / mbtree=0 / crf=16.5000 / qcomp=0.70 / qpmin=0:0:0 / qpmax=69:69:69 / qpstep=4 / vbv_maxrate=40000 / vbv_bufsize=30000 / crf_max=0.0 / nal_hrd=none / filler=0 / ip_ratio=1.20 / pb_ratio=1.20 / aq=4:0.95 / aq-sensitivity=10.00 / aq-factor=1.00:1.00:1.00 / aq2=0 / aq3=0
Язык : English
Default : Да
Forced : Нет
Аудио #1
Идентификатор : 2
Формат : AC-3
Формат/Информация : Audio Coding 3
Расширение режима : CM (complete main)
Параметр Endianness формата : Big
Идентификатор кодека : A_AC3
Продолжительность : 1 ч. 40 м.
Вид битрейта : Постоянный
Битрейт : 448 Кбит/сек
Каналы : 6 каналов
Расположение каналов : Front: L C R, Side: L R, LFE
Частота : 48,0 КГц
Битовая глубина : 16 бит
Метод сжатия : С потерями
Размер потока : 322 Мбайт (6%)
Заголовок : Дубляж
Язык : Russian
Default : Да
Forced : Да
Аудио #2
Идентификатор : 3
Формат : AC-3
Формат/Информация : Audio Coding 3
Расширение режима : CM (complete main)
Параметр Endianness формата : Big
Идентификатор кодека : A_AC3
Продолжительность : 1 ч. 40 м.
Вид битрейта : Постоянный
Битрейт : 448 Кбит/сек
Каналы : 6 каналов
Расположение каналов : Front: L C R, Side: L R, LFE
Частота : 48,0 КГц
Битовая глубина : 16 бит
Метод сжатия : С потерями
Размер потока : 322 Мбайт (6%)
Заголовок : Дубляж
Язык : Ukrainian
Default : Нет
Forced : Нет
Аудио #3
Идентификатор : 4
Формат : AC-3
Формат/Информация : Audio Coding 3
Расширение режима : CM (complete main)
Параметр Endianness формата : Big
Идентификатор кодека : A_AC3
Продолжительность : 1 ч. 40 м.
Вид битрейта : Постоянный
Битрейт : 448 Кбит/сек
Каналы : 6 каналов
Расположение каналов : Front: L C R, Side: L R, LFE
Частота : 48,0 КГц
Битовая глубина : 16 бит
Метод сжатия : С потерями
Размер потока : 322 Мбайт (6%)
Заголовок : Сербин
Язык : Russian
Default : Нет
Forced : Нет
Аудио #4
Идентификатор : 5
Формат : AC-3
Формат/Информация : Audio Coding 3
Расширение режима : CM (complete main)
Параметр Endianness формата : Big
Идентификатор кодека : A_AC3
Продолжительность : 1 ч. 40 м.
Вид битрейта : Постоянный
Битрейт : 448 Кбит/сек
Каналы : 6 каналов
Расположение каналов : Front: L C R, Side: L R, LFE
Частота : 48,0 КГц
Битовая глубина : 16 бит
Метод сжатия : С потерями
Размер потока : 322 Мбайт (6%)
Заголовок : Живов
Язык : Russian
Default : Нет
Forced : Нет
Аудио #5
Идентификатор : 6
Формат : AC-3
Формат/Информация : Audio Coding 3
Расширение режима : CM (complete main)
Параметр Endianness формата : Big
Идентификатор кодека : A_AC3
Продолжительность : 1 ч. 40 м.
Вид битрейта : Постоянный
Битрейт : 448 Кбит/сек
Каналы : 6 каналов
Расположение каналов : Front: L C R, Side: L R, LFE
Частота : 48,0 КГц
Битовая глубина : 16 бит
Метод сжатия : С потерями
Размер потока : 322 Мбайт (6%)
Язык : English
Default : Нет
Forced : Нет
Текст #1
Идентификатор : 7
Формат : UTF-8
Идентификатор кодека : S_TEXT/UTF8
Идентификатор кодека/Информация : UTF-8 Plain Text
Заголовок : Forced
Язык : Russian
Default : Да
Forced : Да
Текст #2
Идентификатор : 8
Формат : UTF-8
Идентификатор кодека : S_TEXT/UTF8
Идентификатор кодека/Информация : UTF-8 Plain Text
Заголовок : Forced
Язык : Ukrainian
Default : Нет
Forced : Нет
Текст #3
Идентификатор : 9
Формат : UTF-8
Идентификатор кодека : S_TEXT/UTF8
Идентификатор кодека/Информация : UTF-8 Plain Text
Язык : Russian
Default : Нет
Forced : Нет
Текст #4
Идентификатор : 10
Формат : UTF-8
Идентификатор кодека : S_TEXT/UTF8
Идентификатор кодека/Информация : UTF-8 Plain Text
Язык : Ukrainian
Default : Нет
Forced : Нет
Текст #5
Идентификатор : 11
Формат : UTF-8
Идентификатор кодека : S_TEXT/UTF8
Идентификатор кодека/Информация : UTF-8 Plain Text
Язык : English
Default : Нет
Forced : Нет
Меню
00:00:00.000 : en:00:00:00.000
00:09:44.042 : en:00:09:44.042
00:18:18.389 : en:00:18:18.389
00:29:50.747 : en:00:29:50.747
00:38:48.034 : en:00:38:48.034
00:48:45.047 : en:00:48:45.047
00:57:49.424 : en:00:57:49.424
01:06:05.253 : en:01:06:05.253
01:16:24.205 : en:01:16:24.205
01:25:56.151 : en:01:25:56.151
01:32:57.322 : en:01:32:57.322




Релиз от:



   Похожие торренты   Торрент   Размер 
В этой теме нет новых непрочитанных сообщений. Лего. Фильм / The Lego Movie (2014) BDRip 720p | Лицензия

293 | 18

4.24 ГБ

В этой теме нет новых непрочитанных сообщений. Лего. Фильм / The Lego Movie (2014) BDRip 720p | iTunes

336 | 54

4.15 ГБ

В этой теме нет новых непрочитанных сообщений. Лего. Фильм / The Lego Movie (2014) BDRip 720p | iTunes

359 | 60

3.55 ГБ

В этой теме нет новых непрочитанных сообщений. Лего. Фильм / The Lego Movie (2014) BDRip 720p | Лицензия

128 | 5

5.2 ГБ

В этой теме нет новых непрочитанных сообщений. Лего. Фильм / The Lego Movie (2014) BDRip 720p от Leonardo and Scarabey | Лицензия

791 | 56

2.15 ГБ

В этой теме нет новых непрочитанных сообщений. Лего. Фильм / The Lego Movie (2014) BDRip 720p от Leonardo and Scarabey | D | iTunes Russia

312 | 24

2.1 ГБ

В этой теме нет новых непрочитанных сообщений. Лего. Фильм / The Lego Movie (2014) WEB-DL 720p | iTunes

2853 | 130

3.27 ГБ




Вы не можете начинать темы
Вы не можете отвечать на сообщения
Вы не можете редактировать свои сообщения
Вы не можете удалять свои сообщения
Вы не можете добавлять вложения

Перейти:  
Для Мосгорсуда, Роскомнадзора и рекламодателей: mosgorsud-torrent[собачка]yandex.ru
 Вход
ppkBB3cker v.2 © 2008-2014 @ PPK
[ Time : 0.058s | 15 Queries | GZIP : Off ]
CGP output time : 0.041s | 5 Queries | GZIP : Off

Торрент трекер RUTOR.IN, Не можете зайти на rutor.org? Какой новый адрес рутор? Какое зеркало рутор? Не работает rutor.org и зеркала? Тогда наш торрент специально для вас. Rutor.in неофициальное зеркало rutor. В случае если у Вас заблокирован rutor или вдруг Вы не можете на него зайти, то Вы без труда сможете скачать бесплатно и без рекламы последние новинки кино, игр, сериалов и прочего у нас, на Rutor.in. Не нужно использовать прокси, чтобы зайти на рутор, достаточно воспользоваться нашим ресурсом. Все новые фильмы, игры, сериалы, книги и музыка за 2013 и 2014 годы через торрент бесплатно. Скачивайте фильмы в хорошем качестве, игры для пк, xbox, playstation без регистрации. У нас вы найдете новые Зарубежные сериалы и Русские сериалы 2013, 2014, 2015 годов. Оставайтесь с нами, качайте любимые фильмы, игры, сериалы, книги и музыку.