img image001 image001 image001 image001 image001 image001 image001 image001 image001 image001 image001 image001 image001 image001 image001

Planets Sun Sun Sun
Статистика раздачи
Автор: Nickolas3434 | Размер: 7 ГБ | Добавлен: 24 авг 2014
Раздают: 0    Качают: 31
Скачать торрент
Скачать торрент
Описание торрента

СообщениеДобавлено: 24 авг 2014 


Название: Дамбо / Dumbo
Оригинальное название: Дамбо / Dumbo
Год выпуска: 1941
Страна: США
Жанр: мультфильм, мюзикл, семейный
Продолжительность: 01:03:56
Перевод: Дубляж - [Лицензия]
Субтитры: Нет

Режиссер: Сэмюэл Армстронг / Samuel Armstrong, Норман Фергюсон / Norman Ferguson, Уилфред Джексон / Wilfred Jackson

В ролях: Джеймс Бескетт (Crow / озвучка / в титрах не указан / слухи), Херман Бинг (The Ringmaster / озвучка / в титрах не указан), Билли Блэтчер (Clown / озвучка / в титрах не указан), Эдвард Брофи (Timothy Q. Mouse / озвучка / в титрах не указан), Джим Кармайкл (Crow / озвучка / в титрах не указан), Холл Джонсон Шор (Choral Sounds, в титрах не указан), Клифф Эдвардс (Jim Crow / озвучка / в титрах не указан), Верна Фелтон (The Elephant Matriarch / Mrs. Jumbo / озвучка / в титрах не указана), Норин Гэммилл (Catty the Elephant / озвучка / в титрах не указана), Эдди Холден (Clown / озвучка / в титрах не указан), Стерлинг Холлоуэй (Mr. Stork / озвучка / в титрах не указан), Малкольм Хаттон (Skinny / озвучка / в титрах не указан)


Описание:
История о маленьком слоненке из цирка, родившемся с очень большими ушами, что было рассмотрено как позорное явление среди цирковых слонов. Но зато он научился летать.


Рейтинг

imdb.com: 7.30 (60 388)
MPAA: G - Нет возрастных ограничений


Автор рипа:Tiberiumsun69

Качество: BDRip 1080p
Формат: MKV
Видео кодек: AVC
Аудио кодек:AC3
Видео: AVC, 1440x1080, 14537 kbps, 59,940 fps
Аудио №1: Русский / AC3 / 2.0 / 48 kHz / 192 kbps / 16 bit |Дубляж R5|
Аудио №2: Английский / AC3 / 5.1 / 48 kHz / 640 kbps / 16 bit



General
Unique ID : 222661693132689655127531862818085394000 (0xA783150CD7D8812B895385961C33D650)
Название : A:1080p 60fpsДамбо 1080p 60fps.mkv
Формат : Matroska
Формат version : Version 4 / Version 2
Размер файла : 7.00 GiB
Длительность : 1h 3mn
Общий Битрейт : 15.7 Mbps
Encoded date : UTC 2014-08-05 10:56:19
Создано приложением : mkvmerge v6.9.1 ('Blue Panther') 64bit built on Apr 18 2014 18:23:38
Writing library : libebml v1.3.0 + libmatroska v1.4.1
Video
ID : 1
Формат : AVC
Формат/Info : Advanced Video Кодек
Формат profile : High@L4.1
Формат настройки, CABAC : Yes
Формат настройки, ReFrames : 4 frames
Кодек ID : V_MPEG4/ISO/AVC
Длительность : 1h 3mn
Битрейт : 14.5 Mbps
Width : 1 440 пикселей
Высота : 1 080 пикселей
Соотношение кадра : 4:3
Частота кадров : 59.940 fps
Цветопередача : YUV
Chroma subsampling : 4:2:0
Разрядность : 8 bits
Тип сканирования : Progressive
Bits/(Pixel*Frame) : 0.156
Размер потока : 6.49 GiB (93%)
Writing library : x264 core 130 r2273 b3065e6
Encoding настройки : cabac=1 / ref=4 / deblock=1:-1:-1 / analyse=0x3:0 / me=umh / subme=9 / psy=1 / psy_rd=1.00:0.10 / mixed_ref=1 / me_range=42 / chroma_me=0 / trellis=2 / 8x8dct=1 / cqm=0 / deadzone=21,11 / fast_pskip=0 / chroma_qp_offset=-3 / threads=12 / lookahead_threads=1 / sliced_threads=0 / nr=0 / decimate=0 / interlaced=0 / bluray_compat=0 / constrained_intra=0 / bframes=5 / b_pyramid=2 / b_adapt=2 / b_bias=0 / direct=1 / weightb=1 / open_gop=0 / weightp=2 / keyint=594 / keyint_min=59 / scenecut=40 / intra_refresh=0 / rc=crf / mbtree=0 / crf=13.0 / qcomp=0.60 / qpmin=0 / qpmax=69 / qpstep=4 / ip_ratio=1.40 / pb_ratio=1.30 / aq=0
Язык : English
Default : Yes
Forced : No
Audio #1
ID : 2
Формат : AC-3
Формат/Info : Audio Coding 3
Расширение режима : CM (complete main)
Кодек ID : A_AC3
Длительность : 1h 3mn
Битрейт mode : Constant
Битрейт : 192 Kbps
Каналы(s) : 2 канала
Каналы positions : Front: L R
Частота : 48.0 KHz
Разрядность : 16 bits
Режим сжатия : Lossy
Размер потока : 87.8 MiB (1%)
Title : Дубляж R5
Язык : Russian
Default : Yes
Forced : No
Audio #2
ID : 3
Формат : AC-3
Формат/Info : Audio Coding 3
Расширение режима : CM (complete main)
Кодек ID : A_AC3
Длительность : 1h 3mn
Битрейт mode : Constant
Битрейт : 640 Kbps
Каналы(s) : 6 каналов
Каналы positions : Front: L C R, Side: L R, LFE
Частота : 48.0 KHz
Разрядность : 16 bits
Режим сжатия : Lossy
Размер потока : 293 MiB (4%)
Title : Оригигал
Язык : English
Default : No
Forced : No
Text #1
ID : 4
Формат : UTF-8
Кодек ID : S_TEXT/UTF8
Кодек ID/Info : UTF-8 Plain Text
Title : Полные
Язык : Russian
Default : No
Forced : No
Text #2
ID : 5
Формат : UTF-8
Кодек ID : S_TEXT/UTF8
Кодек ID/Info : UTF-8 Plain Text
Title : Полные
Язык : English
Default : No
Forced : No
Menu
00:00:00.000 : :1. Opening Credits
00:01:19.871 : :2. Lookout for Mr.Stork
00:04:14.921 : :3. The Circus Moves On "Caesar Junior"
00:06:34.352 : :4. Dumbo Delivered
00:12:49.727 : :5. Setting Up the Big Top"Song of the Roustabouts"
00:17:01.437 : :6. A Bath for Dumbo
00:20:08.040 : :7. Mrs.Jumbo in Solitary Confinement
00:23:32.703 : :8. Dumbo Meets a New Friend
00:28:30.542 : :9. A Pyramid of Pachyderms
00:35:19.534 : :10. Dumbo's Disgrace
00:38:11.915 : :11. Dumbo Visits His Mother "Baby Mine"
00:42:34.510 : :12. Dumbo Gets the Hiccups
00:46:07.723 : :13. "Pink Elephants on Parade"
00:51:00.683 : :14. Up a Tree
00:54:42.279 : :15. "When I See An Elephant Fly"
00:58:40.350 : :16. Dumbo Flies!
01:00:19.449 : :17. Dumbo's Surprise


Просьба к заливающим на другие сайты "Подписывайте пожалуйста автора рипа Tiberiumsun69"



   Похожие торренты   Торрент   Размер 
В этой теме нет новых непрочитанных сообщений. Дамбо / Dumbo (1941) BDRip 1080p | 60 fps | D

28 | 3

5.51 ГБ

В этой теме нет новых непрочитанных сообщений. Дамбо / Dumbo (1941) BDRip 720p | 60 fps | D

0 | 78

3.72 ГБ

В этой теме нет новых непрочитанных сообщений. Дамбо / Dumbo (1941) BDRip от HQCLUB

251 | 16

1.49 ГБ

В этой теме нет новых непрочитанных сообщений. Дамбо / Dumbo (1941) BDRip 720p | 60 fps | D

135 | 7

3.04 ГБ

В этой теме нет новых непрочитанных сообщений. Дамбо / Dumbo (1941) BDRip [720p] от HQ-ViDEO.

9 | 4

4.37 ГБ

В этой теме нет новых непрочитанных сообщений. Дамбо / Dumbo (1941) BDRip 720p от Leonardo and Scarabey

207 | 35

1.4 ГБ

В этой теме нет новых непрочитанных сообщений. Дамбо / Dumbo (1941) Blu-Ray CEE

0 | 1

33.93 ГБ




Вы не можете начинать темы
Вы не можете отвечать на сообщения
Вы не можете редактировать свои сообщения
Вы не можете удалять свои сообщения
Вы не можете добавлять вложения

Перейти:  
Для Мосгорсуда, Роскомнадзора и рекламодателей: mosgorsud-torrent[собачка]yandex.ru
 Вход
ppkBB3cker v.2 © 2008-2014 @ PPK
[ Time : 0.034s | 16 Queries | GZIP : Off ]

Торрент трекер RUTOR.IN, Не можете зайти на rutor.org? Какой новый адрес рутор? Какое зеркало рутор? Не работает rutor.org и зеркала? Тогда наш торрент специально для вас. Rutor.in неофициальное зеркало rutor. В случае если у Вас заблокирован rutor или вдруг Вы не можете на него зайти, то Вы без труда сможете скачать бесплатно и без рекламы последние новинки кино, игр, сериалов и прочего у нас, на Rutor.in. Не нужно использовать прокси, чтобы зайти на рутор, достаточно воспользоваться нашим ресурсом. Все новые фильмы, игры, сериалы, книги и музыка за 2013 и 2014 годы через торрент бесплатно. Скачивайте фильмы в хорошем качестве, игры для пк, xbox, playstation без регистрации. У нас вы найдете новые Зарубежные сериалы и Русские сериалы 2013, 2014, 2015 годов. Оставайтесь с нами, качайте любимые фильмы, игры, сериалы, книги и музыку.
cron