img image001 image001 image001 image001 image001 image001 image001 image001 image001 image001 image001 image001 image001 image001 image001

Planets Sun Sun Sun
Статистика раздачи
Автор: Nickolas3434 | Размер: 4.23 ГБ | Добавлен: 27 авг 2014
Раздают: 108    Качают: 5
Скачать торрент
Скачать торрент
Описание торрента

СообщениеДобавлено: 27 авг 2014 


Название: Бэмби / Bambi
Оригинальное название: Бэмби / Bambi
Год выпуска: 1942
Страна: США
Жанр: мультфильм, драма, семейный
Продолжительность: 01:09:50
Перевод: Дубляж
Субтитры: русские (Полные), английские (Полные)
Вид субтитров: Вшитые, отключаемые

Режиссер: Джеймс Элгар / James Algar, Сэмюэл Армстронг / Samuel Armstrong, Дэвид Хэнд / David Hand

В ролях: Харди Олбрайт (Adolescent Bambi, озвучка, в титрах не указан), Стэн Александр (Young Flower, озвучка, в титрах не указан), Бобетт Одри (озвучка, в титрах не указана), Питер Бен (Young Thumper, озвучка, в титрах не указан), Тельма Бордман (Mrs. Quail / Pheasant, озвучка, в титрах не указана), Джанет Чэпман (озвучка, в титрах не указана), Джинн Кристи (озвучка, в титрах не указана), Долин Брэмстон Кук (озвучка, в титрах не указан), Мэрион Дарлингтон (Birds, озвучка, в титрах не указана), Тим Дэвис (Adult Thumper / Adolescent Flower, озвучка, в титрах не указан), Донни Данаган (Young Bambi, озвучка, в титрах не указан), Сэм Эдвардс (Adult Thumper, озвучка, в титрах не указан)


Описание:
Однажды утром на маленькой, освещенной весенним солнцем, лесной полянке родился олененок. На нового лесного принца сбежались и слетелись посмотреть все звери и птицы. Олененка назвали Бэмби.
Когда Бэмби научился ходить и разговаривать он обзавелся друзьями - кроликом Тампером и скунсом Цветочком. А однажды на лугу, куда привела его мама, Бэмби познакомился с маленькой веселой оленихой - Фэйлин. Но жизнь в лесу бывает опасной и жестокой. Впервые Бэмби столкнулся с этим, когда прозрачный осенний лесной воздух пронзили выстрелы из ружья - все звери начали в панике убегать, и тогда Бэмби впервые услышал страшное слово - Человек.


Рейтинг

imdb.com: 7.40 (65 898)
MPAA: G - Нет возрастных ограничений


Автор рипа:Tiberiumsun69



Качество: BDRip 1080p / 60 FPS
Формат: MKV
Видео кодек: AVC
Аудио кодек:AC3
Видео: AVC, 1456x1080, 7477 kbps, 59,940 fps, 0,079 bpp
Аудио №1: русский / AC3 / 5.1 / 48 kHz / 384 kbps / 16 bit |Дубляж|
Аудио №2: английский / AC3 / 5.1 / 48 kHz / 640 kbps / 16 bit



General
Unique ID : 251553112623217673416308833436087507621 (0xBD3F5E02296DF417AF5268EA0AE25AA5)
Complete name : A:1080p 60fpsБэмби 1080p 60fps.mkv
Format : Matroska
Format version : Version 4 / Version 2
File size : 4.23 GiB
Duration : 1h 9mn
Overall bit rate : 8 674 Kbps
Encoded date : UTC 2014-08-25 12:16:41
Writing application : mkvmerge v6.9.1 ('Blue Panther') 64bit built on Apr 18 2014 18:23:38
Writing library : libebml v1.3.0 + libmatroska v1.4.1
Video
ID : 1
Format : AVC
Format/Info : Advanced Video Codec
Format profile : High@L4.1
Format settings, CABAC : Yes
Format settings, ReFrames : 4 frames
Codec ID : V_MPEG4/ISO/AVC
Duration : 1h 9mn
Bit rate : 7 477 Kbps
Width : 1 456 pixels
Height : 1 080 pixels
Display aspect ratio : 4:3
Frame rate : 59.940 fps
Color space : YUV
Chroma subsampling : 4:2:0
Bit depth : 8 bits
Scan type : Progressive
Bits/(Pixel*Frame) : 0.079
Stream size : 3.65 GiB (86%)
Writing library : x264 core 133 r2334 a3ac64b
Encoding settings : cabac=1 / ref=4 / deblock=1:-1:-1 / analyse=0x3:0 / me=umh / subme=9 / psy=1 / psy_rd=1.00:0.10 / mixed_ref=1 / me_range=42 / chroma_me=0 / trellis=2 / 8x8dct=1 / cqm=0 / deadzone=21,11 / fast_pskip=0 / chroma_qp_offset=-3 / threads=12 / lookahead_threads=1 / sliced_threads=0 / nr=0 / decimate=0 / interlaced=0 / bluray_compat=0 / constrained_intra=0 / bframes=5 / b_pyramid=2 / b_adapt=2 / b_bias=0 / direct=1 / weightb=1 / open_gop=0 / weightp=2 / keyint=594 / keyint_min=59 / scenecut=40 / intra_refresh=0 / rc=crf / mbtree=0 / crf=15.0 / qcomp=0.60 / qpmin=0 / qpmax=69 / qpstep=4 / ip_ratio=1.40 / pb_ratio=1.30 / aq=0
Language : English
Default : Yes
Forced : No
Audio #1
ID : 2
Format : AC-3
Format/Info : Audio Coding 3
Mode extension : CM (complete main)
Codec ID : A_AC3
Duration : 1h 9mn
Bit rate mode : Constant
Bit rate : 384 Kbps
Channel(s) : 6 channels
Channel positions : Front: L C R, Side: L R, LFE
Sampling rate : 48.0 KHz
Bit depth : 16 bits
Compression mode : Lossy
Stream size : 192 MiB (4%)
Title : Дубляж
Language : Russian
Default : Yes
Forced : No
Audio #2
ID : 5
Format : AC-3
Format/Info : Audio Coding 3
Mode extension : CM (complete main)
Codec ID : A_AC3
Duration : 1h 9mn
Bit rate mode : Constant
Bit rate : 640 Kbps
Channel(s) : 6 channels
Channel positions : Front: L C R, Side: L R, LFE
Sampling rate : 48.0 KHz
Bit depth : 16 bits
Compression mode : Lossy
Stream size : 320 MiB (7%)
Title : Original
Language : English
Default : No
Forced : No
Text #1
ID : 3
Format : UTF-8
Codec ID : S_TEXT/UTF8
Codec ID/Info : UTF-8 Plain Text
Title : Полные
Language : Russian
Default : No
Forced : No
Text #2
ID : 4
Format : UTF-8
Codec ID : S_TEXT/UTF8
Codec ID/Info : UTF-8 Plain Text
Title : Полные
Language : English
Default : No
Forced : No
Menu
00:00:00.000 : en:Chapter 1
00:01:19.204 : en:Chapter 2
00:05:13.146 : en:Chapter 3
00:08:19.874 : en:Chapter 4
00:09:50.840 : en:Chapter 5
00:13:53.457 : en:Chapter 6
00:15:56.914 : en:Chapter 7
00:19:50.772 : en:Chapter 8
00:24:25.422 : en:Chapter 9
00:27:16.092 : en:Chapter 10
00:28:26.079 : en:Chapter 11
00:30:37.043 : en:Chapter 12
00:34:07.962 : en:Chapter 13
00:35:29.627 : en:Chapter 14
00:41:00.124 : en:Chapter 15
00:41:57.598 : en:Chapter 16
00:43:28.981 : en:Chapter 17
00:46:07.848 : en:Chapter 18
00:47:24.550 : en:Chapter 19
00:52:25.475 : en:Chapter 20
00:53:40.800 : en:Chapter 21
00:55:30.201 : en:Chapter 22
00:57:40.957 : en:Chapter 23
01:03:16.250 : en:Chapter 24
01:07:17.992 : en:Chapter 25
01:09:50.269 : en:Chapter 26


Просьба к заливающим на другие сайты "Подписывайте пожалуйста автора рипа Tiberiumsun69"



   Похожие торренты   Торрент   Размер 
В этой теме нет новых непрочитанных сообщений. Бэмби / Bambi (1942) BDRip 1080p от KinoZalSat

183 | 12

4.17 ГБ

В этой теме нет новых непрочитанных сообщений. Бэмби / Bambi (1942) BDRip 1080p от MediaClub

42 | 6

5.5 ГБ

В этой теме нет новых непрочитанных сообщений. Бэмби / Bambi (1942) BDRip HEVC 1080p | D

32 | 4

1.61 ГБ

В этой теме нет новых непрочитанных сообщений. Бэмби / Bambi (1942) BDRip 1080p от Freeisland

7 | 2

5.22 ГБ

В этой теме нет новых непрочитанных сообщений. Бэмби / Bambi (1942) BDRip 720p | 60 fps

390 | 16

2.32 ГБ

В этой теме нет новых непрочитанных сообщений. Бэмби / Bambi (1942) BDRip-AVC | iPad

200 | 8

882.28 МБ

В этой теме нет новых непрочитанных сообщений. Бэмби / Bambi (1942) BDRip от HQCLUB

474 | 16

1.45 ГБ




Вы не можете начинать темы
Вы не можете отвечать на сообщения
Вы не можете редактировать свои сообщения
Вы не можете удалять свои сообщения
Вы не можете добавлять вложения

Перейти:  
Для Мосгорсуда, Роскомнадзора и рекламодателей: mosgorsud-torrent[собачка]yandex.ru
 Вход
ppkBB3cker v.2 © 2008-2014 @ PPK
[ Time : 0.052s | 15 Queries | GZIP : Off ]

Торрент трекер RUTOR.IN, Не можете зайти на rutor.org? Какой новый адрес рутор? Какое зеркало рутор? Не работает rutor.org и зеркала? Тогда наш торрент специально для вас. Rutor.in неофициальное зеркало rutor. В случае если у Вас заблокирован rutor или вдруг Вы не можете на него зайти, то Вы без труда сможете скачать бесплатно и без рекламы последние новинки кино, игр, сериалов и прочего у нас, на Rutor.in. Не нужно использовать прокси, чтобы зайти на рутор, достаточно воспользоваться нашим ресурсом. Все новые фильмы, игры, сериалы, книги и музыка за 2013 и 2014 годы через торрент бесплатно. Скачивайте фильмы в хорошем качестве, игры для пк, xbox, playstation без регистрации. У нас вы найдете новые Зарубежные сериалы и Русские сериалы 2013, 2014, 2015 годов. Оставайтесь с нами, качайте любимые фильмы, игры, сериалы, книги и музыку.