img image001 image001 image001 image001 image001 image001 image001 image001 image001 image001 image001 image001 image001 image001 image001

Planets Sun Sun Sun
Статистика раздачи
Автор: Nickolas3434 | Размер: 2.06 ГБ | Добавлен: 26 авг 2014
Раздают: 277    Качают: 48
Скачать торрент
Скачать торрент
Описание торрента

СообщениеДобавлено: 26 авг 2014 

Информация о фильме
Название: Легенды Чимы
Оригинальное название: Legends of Chima
Год выхода: 2013
Жанр: мультфильм, фэнтези
Режиссер: Педер Педерсен, Ли Стрингер, Phillip Berg
В ролях: David Attar, Bethany Brown, Bill Courage, Jesse Inocalla, Megan Kinsley, Michael Patric, Scott Shantz, Jeff Evans Todd
О фильме:
Сюжет фильма разворачивается в волшебной стране Чима, существующей благодаря природной энергии Чи, которая изливается с вершины горы Кавора в виде водопада в реку Кавора. Река приносит энергию Чи к Священному Колодцу, где она преобразуется в магические кристаллы, которые обитатели Чимы используют для поддержания своей жизненной силы и питания энергией транспортных средств. Страна населена племенами разумных животных: Львы, Крокодилы, Орлы, Вороны, Волки и Гориллы. Много веков звери жили в мире, однако жадность племени Крокодилов привела к войне.
Официальный сайт
Страна: Дания, Индия, Таиланд
Студия: M2Film, Prime Focus, Cartoon Network
Продолжительность: 20х00:22:00
Перевод: Дублированный [SDI Media]
Файл
Кодек: XviD / AC3
Качество: WEB-DLRip
Видео: XviD, 720x400 (16:9), 23.976 fps, ~2100 Kbps (0.300 bit/pixel)
Звук: AC-3, 48.0 KHz, 2 ch, 192 Kbps, CBR
Семпл
General
Complete name : /Легенды Чимы.2 сезон.Xvid.-merci/21. В Чужеземье.Xvid.-merci.avi
Format : AVI
Format/Info : Audio Video Interleave
File size : 360 MiB
Duration : 22mn 3s
Overall bit rate : 2 285 Kbps
Writing application : VirtualDubMod 1.5.10.3 | www.virtualdub-fr.org || (build 2550/release)
Writing library : VirtualDubMod build 2550/release
Video
ID : 0
Format : MPEG-4 Visual
Format profile : Advanced Simple@L5
Format settings, BVOP : 2
Format settings, QPel : No
Format settings, GMC : No warppoints
Format settings, Matrix : Default (MPEG)
Codec ID : XVID
Codec ID/Hint : XviD
Duration : 22mn 3s
Bit rate : 2 083 Kbps
Width : 720 pixels
Height : 400 pixels
Display aspect ratio : 16:9
Frame rate : 23.976 fps
Color space : YUV
Chroma subsampling : 4:2:0
Bit depth : 8 bits
Scan type : Progressive
Compression mode : Lossy
Bits/(Pixel*Frame) : 0.302
Stream size : 329 MiB (91%)
Writing library : XviD 73
Audio
ID : 1
Format : AC-3
Format/Info : Audio Coding 3
Mode extension : CM (complete main)
Format settings, Endianness : Big
Codec ID : 2000
Duration : 22mn 3s
Bit rate mode : Constant
Bit rate : 192 Kbps
Channel(s) : 2 channels
Channel positions : Front: L R
Sampling rate : 48.0 KHz
Bit depth : 16 bits
Compression mode : Lossy
Stream size : 30.3 MiB (8%)
Alignment : Split accross interleaves
Interleave, duration : 42 ms (1.00 video frame)
Interleave, preload duration : 500 ms



   Похожие торренты   Торрент   Размер 
В этой теме нет новых непрочитанных сообщений. Легенды Чимы / Legends of Chima [S01] (2013) WEB-DLRip | D

426 | 219

7.39 ГБ

В этой теме нет новых непрочитанных сообщений. Легенды Чимы / Legends of Chima [01-39 из 53] (2013) WEB-DLRip от Generalfilm | D

66 | 44

13.36 ГБ

В этой теме нет новых непрочитанных сообщений. Легенды Чимы / Legends of Chima [01-20 из 20] (2013) WEB-DLRip от Generalfilm | D

114 | 83

6.85 ГБ

В этой теме нет новых непрочитанных сообщений. Легенды / Legends [02x01 из 10] (2015) WEB-DLRip | AlexFilm

48 | 6

540.39 МБ

В этой теме нет новых непрочитанных сообщений. Легенды / Legends [02x01 из 10] (2015) WEB-DLRip | BaibaKo

156 | 10

579.66 МБ

В этой теме нет новых непрочитанных сообщений. Легенды завтрашнего дня / DC's Legends of Tomorrow [S01-02x01-30 из 33] (2016-2017) WEB-DLRip от Generalfilm | КПК | LostFilm

5 | 15

5.62 ГБ

В этой теме нет новых непрочитанных сообщений. Легенды / Legends [02x01 из 10] (2015) WEB-DL 1080p | BaibaKo

65 | 6

1.72 ГБ




Вы не можете начинать темы
Вы не можете отвечать на сообщения
Вы не можете редактировать свои сообщения
Вы не можете удалять свои сообщения
Вы не можете добавлять вложения

Перейти:  
Для Мосгорсуда, Роскомнадзора и рекламодателей: mosgorsud-torrent[собачка]yandex.ru
 Вход
ppkBB3cker v.2 © 2008-2014 @ PPK
[ Time : 0.040s | 17 Queries | GZIP : Off ]

cron