img image001 image001 image001 image001 image001 image001 image001 image001 image001 image001 image001 image001 image001 image001 image001

Planets Sun Sun Sun
Статистика раздачи
Автор: Nickolas3434 | Размер: 2.13 ГБ | Добавлен: 27 авг 2014
Раздают: 152    Качают: 23
Скачать торрент
Скачать торрент
Описание торрента

СообщениеДобавлено: 27 авг 2014 

Информация о фильме
Название: Механика сердца
Оригинальное название: Jack et la mécanique du coeur
Год выпуска: 2013
Жанр: Мультфильм, мюзикл, фэнтези, драма, мелодрама, приключения
Выпущено: Франция, Бельгия, Canal+ [fr], Ciné, Duran, EuropaCorp, Fonds Film in VlaanderenOndernemen (VLAO)
Режиссер: Стефан Берла, Матиас Мальзьё
В ролях: Матиас Мальзьё, Оливия Руис, Гран Кор Маляд, Жан Рошфор, Росси де Пальма, Мари Винсент, Эмили Луазо, Артур Х., Дани
О фильме: Механика сердца - современная сказка для взрослых. История началась в один из холодных зимних дней в Эдинбурге. В доме Докторши Мадлен родился мальчик, мать которого сразу же отказалась от сына, оставив его на попечение хозяйки. Мадлен, при помощи подручных средств, любила "чинить" людей. Что и принесло ей славу женщины, наделённой колдовскими силами, а нашему герою, Джеку, спасло жизнь. Его слабое сердце отказывалось работать в первые минуты жизни, и Мадлен, спасая жизнь мальчику, вместо сердца вставляет ему старые ходики. Отныне любовь для него смертельно опасна: сильного чувства механизм просто не выдержит. Мультфильм снят по одноименной книге Матиаса Мальзье - популярного французского рок-певца и писателя.

Файл
Качество: BDRip (AVC)
Видео: MPEG-4 AVC, 1752 Кбит/с, 1024x576
Аудио: Русский, английский, французский (AC3, 6 ch, 384 Кбит/с)
Продолжительность: 01:32:32
Перевод: Профессиональный многоголосый, любительский двухголосый
Субтитры: Русские, французские
Озвучивание: Любительское (двухголосое)
Профессиональное (многоголосое) [AlexFilm]
Перевод: Doctor Joker и MartinaG
Монтаж и сведение звука: Михаил Шорыгин
Озвучание:
Татьяна Манетина
Анна Тух
Михаил Суслов
Константин Погодаев
Роман Сопко
Субтитры: русские (только на песни), французские
- За русские субтитры на песни спасибо rtys
- Работа с французскими субтитрами xfiles
General
Unique ID : 192743954469024574073643204068218944406 (0x910122A65F7C9F8ABE382069BA8ABB96)
Complete name : C:Jack et la mécanique du coeur.2013.BDRip.AVC.ExKinoRay.mkv
Format : Matroska
Format version : Version 2
File size : 2.13 GiB
Duration : 1h 32mn
Overall bit rate : 3 289 Kbps
Movie name : Механика сердца 2014 from ExKinoRay
Encoded date : UTC 2014-08-26 01:07:54
Writing application : mkvmerge v4.9.1 ('Ich will') built on Jul 11 2011 23:53:15
Writing library : libebml v1.2.1 + libmatroska v1.1.1
Video
ID : 1
Format : AVC
Format/Info : Advanced Video Codec
Format profile : High@L4.1
Format settings, CABAC : Yes
Format settings, ReFrames : 9 frames
Codec ID : V_MPEG4/ISO/AVC
Duration : 1h 32mn
Bit rate : 1 752 Kbps
Width : 1 024 pixels
Height : 576 pixels
Display aspect ratio : 16:9
Frame rate mode : Constant
Frame rate : 24.000 fps
Color space : YUV
Chroma subsampling : 4:2:0
Bit depth : 8 bits
Scan type : Progressive
Bits/(Pixel*Frame) : 0.124
Stream size : 1.09 GiB (51%)
Title : Enigma-Vladislav71
Writing library : x264 core 116 r2044 392e762
Encoding settings : cabac=1 / ref=9 / deblock=1:-2:-2 / analyse=0x3:0x113 / me=umh / subme=9 / psy=1 / psy_rd=1.00:0.20 / mixed_ref=1 / me_range=32 / chroma_me=1 / trellis=2 / 8x8dct=1 / cqm=0 / deadzone=21,11 / fast_pskip=0 / chroma_qp_offset=-3 / threads=12 / sliced_threads=0 / nr=0 / decimate=0 / interlaced=0 / bluray_compat=0 / constrained_intra=0 / bframes=9 / b_pyramid=2 / b_adapt=2 / b_bias=0 / direct=3 / weightb=1 / open_gop=0 / weightp=2 / keyint=240 / keyint_min=24 / scenecut=40 / intra_refresh=0 / rc=2pass / mbtree=0 / bitrate=1752 / ratetol=1.0 / qcomp=0.60 / qpmin=0 / qpmax=69 / qpstep=4 / cplxblur=20.0 / qblur=0.5 / ip_ratio=1.40 / pb_ratio=1.30 / aq=1:1.00
Default : Yes
Forced : No
Audio #1
ID : 2
Format : AC-3
Format/Info : Audio Coding 3
Mode extension : CM (complete main)
Format settings, Endianness : Big
Codec ID : A_AC3
Duration : 1h 32mn
Bit rate mode : Constant
Bit rate : 384 Kbps
Channel(s) : 6 channels
Channel positions : Front: L C R, Side: L R, LFE
Sampling rate : 48.0 KHz
Bit depth : 16 bits
Compression mode : Lossy
Stream size : 254 MiB (12%)
Title : AlexFilm
Language : Russian
Default : No
Forced : No
Audio #2
ID : 3
Format : AC-3
Format/Info : Audio Coding 3
Mode extension : CM (complete main)
Format settings, Endianness : Big
Codec ID : A_AC3
Duration : 1h 32mn
Bit rate mode : Constant
Bit rate : 384 Kbps
Channel(s) : 6 channels
Channel positions : Front: L C R, Side: L R, LFE
Sampling rate : 48.0 KHz
Bit depth : 16 bits
Compression mode : Lossy
Stream size : 254 MiB (12%)
Title : DVO
Language : Russian
Default : No
Forced : No
Audio #3
ID : 4
Format : AC-3
Format/Info : Audio Coding 3
Mode extension : CM (complete main)
Format settings, Endianness : Big
Codec ID : A_AC3
Duration : 1h 32mn
Bit rate mode : Constant
Bit rate : 384 Kbps
Channel(s) : 6 channels
Channel positions : Front: L C R, Side: L R, LFE
Sampling rate : 48.0 KHz
Bit depth : 16 bits
Compression mode : Lossy
Stream size : 254 MiB (12%)
Language : English
Default : No
Forced : No
Audio #4
ID : 5
Format : AC-3
Format/Info : Audio Coding 3
Mode extension : CM (complete main)
Format settings, Endianness : Big
Codec ID : A_AC3
Duration : 1h 32mn
Bit rate mode : Constant
Bit rate : 384 Kbps
Channel(s) : 6 channels
Channel positions : Front: L C R, Side: L R, LFE
Sampling rate : 48.0 KHz
Bit depth : 16 bits
Compression mode : Lossy
Stream size : 254 MiB (12%)
Language : French
Default : No
Forced : No
Text #1
ID : 6
Format : UTF-8
Codec ID : S_TEXT/UTF8
Codec ID/Info : UTF-8 Plain Text
Title : Rus Sub - песни
Language : Russian
Default : No
Forced : No
Text #2
ID : 7
Format : UTF-8
Codec ID : S_TEXT/UTF8
Codec ID/Info : UTF-8 Plain Text
Title : Fre Sub (full)
Language : French
Default : No
Forced : No



Релиз от:
Авторы релиза:



   Похожие торренты   Торрент   Размер 
В этой теме нет новых непрочитанных сообщений. Механика сердца / Jack et la mécanique du coeur (2013) BDRip-AVC | L2

183 | 71

2.14 ГБ

В этой теме нет новых непрочитанных сообщений. Механика сердца / Jack et la mécanique du coeur (2013) BDRip 720p

565 | 7

2.19 ГБ

В этой теме нет новых непрочитанных сообщений. Механика сердца / Jack et la mécanique du coeur (2013) BDRip 1080p | L2

83 | 26

7.91 ГБ

В этой теме нет новых непрочитанных сообщений. Механика сердца / Jack et la mécanique du coeur (2013) BDRip 720p | L2

285 | 89

3.52 ГБ

В этой теме нет новых непрочитанных сообщений. Механика сердца / Jack et la mécanique du coeur (2013) BDRip | AlexFilm

153 | 17

1.38 ГБ

В этой теме нет новых непрочитанных сообщений. Механика сердца / Jack et la mécanique du coeur (2013) BDRip 720p | AlexFilm

257 | 2

4.47 ГБ

В этой теме нет новых непрочитанных сообщений. Механика сердца / Jack et la mécanique du coeur (2013) HDRip | P

577 | 78

1.37 ГБ




Вы не можете начинать темы
Вы не можете отвечать на сообщения
Вы не можете редактировать свои сообщения
Вы не можете удалять свои сообщения
Вы не можете добавлять вложения

Перейти:  
Для Мосгорсуда, Роскомнадзора и рекламодателей: mosgorsud-torrent[собачка]yandex.ru
 Вход
ppkBB3cker v.2 © 2008-2014 @ PPK
[ Time : 0.040s | 15 Queries | GZIP : Off ]

Торрент трекер RUTOR.IN, Не можете зайти на rutor.org? Какой новый адрес рутор? Какое зеркало рутор? Не работает rutor.org и зеркала? Тогда наш торрент специально для вас. Rutor.in неофициальное зеркало rutor. В случае если у Вас заблокирован rutor или вдруг Вы не можете на него зайти, то Вы без труда сможете скачать бесплатно и без рекламы последние новинки кино, игр, сериалов и прочего у нас, на Rutor.in. Не нужно использовать прокси, чтобы зайти на рутор, достаточно воспользоваться нашим ресурсом. Все новые фильмы, игры, сериалы, книги и музыка за 2013 и 2014 годы через торрент бесплатно. Скачивайте фильмы в хорошем качестве, игры для пк, xbox, playstation без регистрации. У нас вы найдете новые Зарубежные сериалы и Русские сериалы 2013, 2014, 2015 годов. Оставайтесь с нами, качайте любимые фильмы, игры, сериалы, книги и музыку.