img image001 image001 image001 image001 image001 image001 image001 image001 image001 image001 image001 image001 image001 image001 image001

Planets Sun Sun Sun
Статистика раздачи
Автор: Nickolas3434 | Размер: 4.83 ГБ | Добавлен: 27 авг 2014
Раздают: 167    Качают: 18
Скачать торрент
Скачать торрент
Описание торрента

СообщениеДобавлено: 27 авг 2014 



#77
Информация о фильме
    Русское название: Рататуй
    Оригинальное название: Ratatouille
    Год выхода: 2007
    Жанр: Комедия, Анимационный
    Режиссер: Брэд Бёрд
    Выпущено: США
    Продолжительность: 01:50:33
    Перевод: Дублированный
    В ролях: Люк Уилсон, Уилл Феррелл, Винс Вон, Джереми Пивен, Эллен Помпео, Джульетт Льюис, Леа Ремини, Перри Ривз, Крэйг Килборн, Элиша Катберт


Сюжет фильма
    Реми, французский крыс с отличным обонянием и вкусом, а также с нетипичной тягой к хорошей кухне, устал питаться отбросами. Он мечтает стать шеф-поваром и колдовать на кухне. Однако повара с крысами, как известно, не ладят... Мечты Реми стать шеф-поваром становятся на один шаг ближе к реальности, когда незадачливый поваренок Лингвини, тщетно пытается исправить испорченный суп. Реми в конце концов сам украдкой готовит суп и блюдо становится хитом. Лингвини упрашивает маленького крыса помочь ему приготовить суп снова. Они становятся весьма специфической, но крайне успешной парой, и кулинарный гений Реми наконец получает возможность засверкать всеми красками.


Файл
    Качество: BDRip 720p (исходник Blu-ray Disc)
    Видео: 1280x534, 4980 Кбит/сек, 59.940 кадр/сек, AVC, x264, High@L4.1, 2.40:1, 0.122 Бит/[Пиксели*Кадры]
    Аудио 1: AC-3, 640 Кбит/сек, 6 канала(ов), 48,0 КГц - Дублированный / Русский
    Аудио 2: AC-3, 640 Кбит/сек, 6 канала(ов), 48,0 КГц - Оригинал / Английский
    Субтитры: Русские | Полные, Английские | Полные
    Форсированные субтитры: Русские
    Чаптеры (Главы): Есть
Зарубежные фильмы в 60 FPS



Автор Рипа: Сообщество:



Format : Matroska
Format version : Version 2
File size : 4.83 GiB
Duration : 1h 50mn
Overall bit rate : 6 255 Kbps
Movie name : Рататуй.(2007).BDRip.720p.[envy].[60fps]
Encoded date : UTC 2014-08-26 14:56:56
Writing application : mkvmerge v5.8.0 ('No Sleep / Pillow') built on Sep 2 2012 15:37:04
Writing library : libebml v1.2.3 + libmatroska v1.3.0
Video
ID : 1
Format : AVC
Format/Info : Advanced Video Codec
Format profile : High@L4.1
Format settings, CABAC : Yes
Format settings, ReFrames : 9 frames
Codec ID : V_MPEG4/ISO/AVC
Duration : 1h 50mn
Bit rate : 4 980 Kbps
Width : 1 280 pixels
Height : 534 pixels
Display aspect ratio : 2.40:1
Frame rate mode : Constant
Frame rate : 59.880 fps
Original frame rate : 59.940 fps
Color space : YUV
Chroma subsampling : 4:2:0
Bit depth : 8 bits
Scan type : Progressive
Bits/(Pixel*Frame) : 0.122
Stream size : 3.75 GiB (78%)
Title : Рататуй.(2007).BDRip.720p.[envy].[60fps]
Writing library : x264 core 130 r2273 b3065e6
Encoding settings : cabac=1 / ref=9 / deblock=1:0:0 / analyse=0x3:0x133 / me=umh / subme=10 / psy=1 / psy_rd=1.00:0.00 / mixed_ref=1 / me_range=28 / chroma_me=1 / trellis=2 / 8x8dct=1 / cqm=0 / deadzone=21,11 / fast_pskip=0 / chroma_qp_offset=-2 / threads=12 / lookahead_threads=1 / sliced_threads=0 / nr=0 / decimate=1 / interlaced=0 / bluray_compat=0 / constrained_intra=0 / bframes=5 / b_pyramid=2 / b_adapt=2 / b_bias=0 / direct=3 / weightb=1 / open_gop=0 / weightp=2 / keyint=250 / keyint_min=25 / scenecut=40 / intra_refresh=0 / rc=2pass / mbtree=0 / bitrate=4980 / ratetol=1.0 / qcomp=0.60 / qpmin=0 / qpmax=69 / qpstep=4 / cplxblur=20.0 / qblur=0.5 / ip_ratio=1.40 / pb_ratio=1.30 / aq=2:0.80
Language : English
Default : Yes
Forced : No
Audio #1
ID : 2
Format : AC-3
Format/Info : Audio Coding 3
Mode extension : CM (complete main)
Format settings, Endianness : Big
Codec ID : A_AC3
Duration : 1h 50mn
Bit rate mode : Constant
Bit rate : 640 Kbps
Channel(s) : 6 channels
Channel positions : Front: L C R, Side: L R, LFE
Sampling rate : 48.0 KHz
Bit depth : 16 bits
Compression mode : Lossy
Stream size : 506 MiB (10%)
Title : Dub
Language : Russian
Default : Yes
Forced : No
Audio #2
ID : 3
Format : AC-3
Format/Info : Audio Coding 3
Mode extension : CM (complete main)
Format settings, Endianness : Big
Codec ID : A_AC3
Duration : 1h 50mn
Bit rate mode : Constant
Bit rate : 640 Kbps
Channel(s) : 6 channels
Channel positions : Front: L C R, Side: L R, LFE
Sampling rate : 48.0 KHz
Bit depth : 16 bits
Compression mode : Lossy
Stream size : 506 MiB (10%)
Title : Eng
Language : English
Default : No
Forced : No
Text #1
ID : 4
Format : UTF-8
Codec ID : S_TEXT/UTF8
Codec ID/Info : UTF-8 Plain Text
Title : forced
Language : Russian
Default : Yes
Forced : Yes
Text #2
ID : 5
Format : UTF-8
Codec ID : S_TEXT/UTF8
Codec ID/Info : UTF-8 Plain Text
Title : full
Language : Russian
Default : No
Forced : No
Text #3
ID : 6
Format : UTF-8
Codec ID : S_TEXT/UTF8
Codec ID/Info : UTF-8 Plain Text
Title : full
Language : English
Default : No
Forced : No
Menu
00:00:00.000 : :Chapter 01
00:01:16.201 : :Chapter 02
00:06:29.430 : :Chapter 03
00:09:22.895 : :Chapter 04
00:10:58.074 : :Chapter 05
00:13:30.976 : :Chapter 06
00:17:40.017 : :Chapter 07
00:19:37.551 : :Chapter 08
00:24:48.320 : :Chapter 09
00:28:55.233 : :Chapter 10
00:33:05.066 : :Chapter 11
00:38:13.416 : :Chapter 12
00:40:33.139 : :Chapter 13
00:44:11.231 : :Chapter 14
00:46:59.316 : :Chapter 15
00:51:27.667 : :Chapter 16
00:57:02.168 : :Chapter 17
00:59:32.318 : :Chapter 18
01:00:53.524 : :Chapter 19
01:07:19.744 : :Chapter 20
01:11:25.656 : :Chapter 21
01:15:28.232 : :Chapter 22
01:19:25.093 : :Chapter 23
01:23:30.130 : :Chapter 24
01:25:34.462 : :Chapter 25
01:28:18.334 : :Chapter 26
01:32:39.011 : :Chapter 27
01:35:41.444 : :Chapter 28
01:38:49.715 : :Chapter 29
01:40:54.673 : :Chapter 30
01:42:58.964 : :Chapter 31


#77
#77

Прежде чем скачивать фильм полностью, скачайте "сэмпл", и проверьте будет ли воспроизводится видео на вашем устройстве!
Q: Присутствуют ли артефакты на изображении?
A: Да, есть, и будут, какие настройки кодека не вписывай они будут постоянно! хоть они и обработаны фильтром "Sharp", но они выглядят вполне смотрибельно.
+ > Артефактов стало меньше! Переписал скрипт кодирования.
Q: У меня не запускается видео на компьютере.
A: Обновите кодеки. (попробуйте другие видео проигрыватели)
Q: Что нужно для воспроизведения данного видео.
A: Что рекомендуется для воспроизведения:
Процессор: рекомендую 4х ядерный
Видео карта: минимум 512Мб. И желательно включить обработку изображения с помощью видео карты. (Деинтерлейсинг, подавление блочности и т.д.)
ОЗУ: 2Гб
Проигрыватели.
MPC-HC (Media Player Classic - Home Cinema)
The KMPlayer (Korean Multimedia Player) (оптимальный вариант)
Mirillis Splash PRO (Если что то проигрыватель сам может преобразовывать видео вплоть до частоты кадров монитора. Или тех же 60fps.)

^Прежде чем отписывать комментарии по качеству, прочитайте спойлер!
Внимание: Данные фильмы делаются (кому нужно знает где) с обязательным указанием ||60FPS|| !



   Похожие торренты   Торрент   Размер 
В этой теме нет новых непрочитанных сообщений. Рататуй / Ratatouille (2007) BDRip (720p)

24 | 9

5.76 ГБ

В этой теме нет новых непрочитанных сообщений. Рататуй / Ratatouille (2007) BDRip 720p от HQ-ViDEO

349 | 33

5.47 ГБ

В этой теме нет новых непрочитанных сообщений. Рататуй / Ratatouille (2007) BDRip 720p от PskovLine

0 | 9

5.76 ГБ

В этой теме нет новых непрочитанных сообщений. Рататуй / Ratatouille (2007) BDRip 720p от Leonardo and Scarabey | D | Лицензия

1878 | 124

2.25 ГБ

В этой теме нет новых непрочитанных сообщений. Рататуй / Ratatouille (2007) BDRip

287 | 16

705.73 МБ

В этой теме нет новых непрочитанных сообщений. Рататуй / Ratatouille (2007) BDRip 1080p

299 | 20

4.37 ГБ

В этой теме нет новых непрочитанных сообщений. Рататуй / Ratatouille (2007) BDRip от HELLYWOOD

19 | 3

2.33 ГБ




Вы не можете начинать темы
Вы не можете отвечать на сообщения
Вы не можете редактировать свои сообщения
Вы не можете удалять свои сообщения
Вы не можете добавлять вложения

Перейти:  
Для Мосгорсуда, Роскомнадзора и рекламодателей: mosgorsud-torrent[собачка]yandex.ru
 Вход
ppkBB3cker v.2 © 2008-2014 @ PPK
[ Time : 0.049s | 15 Queries | GZIP : Off ]

Торрент трекер RUTOR.IN, Не можете зайти на rutor.org? Какой новый адрес рутор? Какое зеркало рутор? Не работает rutor.org и зеркала? Тогда наш торрент специально для вас. Rutor.in неофициальное зеркало rutor. В случае если у Вас заблокирован rutor или вдруг Вы не можете на него зайти, то Вы без труда сможете скачать бесплатно и без рекламы последние новинки кино, игр, сериалов и прочего у нас, на Rutor.in. Не нужно использовать прокси, чтобы зайти на рутор, достаточно воспользоваться нашим ресурсом. Все новые фильмы, игры, сериалы, книги и музыка за 2013 и 2014 годы через торрент бесплатно. Скачивайте фильмы в хорошем качестве, игры для пк, xbox, playstation без регистрации. У нас вы найдете новые Зарубежные сериалы и Русские сериалы 2013, 2014, 2015 годов. Оставайтесь с нами, качайте любимые фильмы, игры, сериалы, книги и музыку.