img image001 image001 image001 image001 image001 image001 image001 image001 image001 image001 image001 image001 image001 image001 image001

Planets Sun Sun Sun
Статистика раздачи
Автор: Nickolas3434 | Размер: 662.55 МБ | Добавлен: 29 авг 2014
Раздают: 36    Качают: 5
Скачать торрент
Скачать торрент
Описание торрента

СообщениеДобавлено: 29 авг 2014 

Информация о фильме
Название: Грэвити Фоллс (2 сезон, 1 серия)
Оригинальное название: Gravity Falls
Год выхода: 2014
Жанр: мультфильм, фэнтези, комедия, детектив, семейный
Режиссер: Джон Аошима, Джо Питт, Аарон Спринджер
В ролях: Кристен Шааль, Джейсон Риттер, Алекс Хирш, Линда Карделлини, Кевин Майкл Ричардсон, Уилл Форте, Кейт Фергюсон, Джон Ди Маджио, Грей ДеЛайл, Нил Гамбургер
О фильме: История рассказывает о приключениях близнецов, брата и сестры Диппера и Мэйбл Пайнс, чьи летние планы отправляются в чулан, когда родители оправляют их к дальнему родственнику в тихий городок Грэвити Фоллс. Но так ли прост этот город, родственник и жители и какие тайны ждут своих первооткрывателей?
Продолжительность: 1 х ~00:22:00
Перевод: Любительский (многоголосый закадровый)
Субтитры: отсутствуют
Файл
Формат: AVI
Качество: WEB-DLRip
Видео: 720 x 400 (16:9), 23.976 fps, XviD build 73 ~1673 kbps avg, 0.242 bit/pixel
Аудио# 1 Русский: 48 kHz, AC3 Dolby Digital, 2/0 (L,R) ch, ~192 kbps | Любительский (многоголосый, закадровый) |
Аудио# 2 Английский: 48 kHz, AC3 Dolby Digital, 2/0 (L,R) ch, ~192 kbps | Оригинал |
Релиз от: | Семпл
Перевод на русский: Notabenoid
Озвучено: Loster01 & Eva & Absurd & Shoker & GreyMoon & Emeri
Тайминг: RiN
Энкод: Miheleniya
01. Scary-Oke / Кошмараоке
Общее
Полное имя : Gravity.Falls.S02.LE-ProductionGravity.Falls.S02E01.Scary-oke.LE-Production.avi
Формат : AVI
Формат/Информация : Audio Video Interleave
Размер файла : 335 Мбайт
Продолжительность : 22 м.
Общий поток : 2072 Кбит/сек
Программа кодирования : VirtualDubMod 1.5.10.2 (build 2540/release)
Библиотека кодирования : VirtualDubMod build 2540/release
Видео
Идентификатор : 0
Формат : MPEG-4 Visual
Профиль формата : Advanced Simple@L5
Параметр BVOP формата : 1
Параметр QPel формата : Нет
Параметр GMC формата : Без точки перехода
Параметр матрицы формата : Выборочная
Идентификатор кодека : XVID
Идентификатор кодека/Подсказка : XviD
Продолжительность : 22 м.
Битрейт : 1673 Кбит/сек
Ширина : 720 пикс.
Высота : 400 пикс.
Соотношение сторон : 16:9
Частота кадров : 23,976 кадр/сек
Цветовое пространство : YUV
Подвыборка цветности : 4:2:0
Битовая глубина : 8 бит
Тип развёртки : Прогрессивная
Метод сжатия : С потерями
Бит/(Пиксели*Кадры) : 0.242
Размер потока : 271 Мбайт (81%)
Библиотека кодирования : XviD 73
Аудио #1
Идентификатор : 1
Формат : AC-3
Формат/Информация : Audio Coding 3
Расширение режима : CM (complete main)
Идентификатор кодека : 2000
Продолжительность : 22 м.
Вид битрейта : Постоянный
Битрейт : 192 Кбит/сек
Канал(ы) : 2 канала(ов)
Расположение каналов : Front: L R
Частота : 48,0 КГц
Битовая глубина : 16 бит
Метод сжатия : С потерями
Размер потока : 31,1 Мбайт (9%)
Выравнивание : Разделение по промежуткам
Продолжительность промежутка : 42 мс. (1,00 видеокадр)
Время предзагрузки промежутка : 500 ms
Заголовок : Rus (le-production)
Аудио #2
Идентификатор : 2
Формат : AC-3
Формат/Информация : Audio Coding 3
Расширение режима : CM (complete main)
Идентификатор кодека : 2000
Продолжительность : 22 м.
Вид битрейта : Постоянный
Битрейт : 192 Кбит/сек
Канал(ы) : 2 канала(ов)
Расположение каналов : Front: L R
Частота : 48,0 КГц
Битовая глубина : 16 бит
Метод сжатия : С потерями
Размер потока : 31,1 Мбайт (9%)
Выравнивание : Разделение по промежуткам
Продолжительность промежутка : 42 мс. (1,00 видеокадр)
Время предзагрузки промежутка : 500 ms
Заголовок : Eng (original)





   Похожие торренты   Торрент   Размер 
В этой теме нет новых непрочитанных сообщений. Грэвити Фоллс / Gravity Falls [02x01 из 20] (2014) WEB-DLRip | L

10 | 5

335.11 МБ

В этой теме нет новых непрочитанных сообщений. Грэвити Фоллс / Gravity Falls [02x01 из 20] (2014) WEB-DLRip | L

66 | 9

993.9 МБ

В этой теме нет новых непрочитанных сообщений. Грэвити Фоллс / Gravity Falls [02x01 из 20] (2014) WEB-DL 720p | L

54 | 13

2.28 ГБ

В этой теме нет новых непрочитанных сообщений. Грэвити Фоллс / Gravity Falls [02x01 из 20] (2014) WEB-DL 720p | L

5 | 12

732.22 МБ

В этой теме нет новых непрочитанных сообщений. Грэвити Фоллс / Gravity Falls [02x01 из 20] (2014) WEB-DL 720p | L

20 | 4

1.4 ГБ

В этой теме нет новых непрочитанных сообщений. Грэвити Фоллс / Gravity Falls [S01] (2013) WEB-DLRip от Deadmauvlad | D

1342 | 459

6.27 ГБ

В этой теме нет новых непрочитанных сообщений. Грэвити Фоллс / Гравити Фолз / Gravity Falls [S02] (2014-2015) WEB-DL 720р | L1

1123 | 170

6.47 ГБ




Вы не можете начинать темы
Вы не можете отвечать на сообщения
Вы не можете редактировать свои сообщения
Вы не можете удалять свои сообщения
Вы не можете добавлять вложения

Перейти:  
Для Мосгорсуда, Роскомнадзора и рекламодателей: mosgorsud-torrent[собачка]yandex.ru
 Вход
ppkBB3cker v.2 © 2008-2014 @ PPK
[ Time : 0.019s | 16 Queries | GZIP : Off ]

Торрент трекер RUTOR.IN, Не можете зайти на rutor.org? Какой новый адрес рутор? Какое зеркало рутор? Не работает rutor.org и зеркала? Тогда наш торрент специально для вас. Rutor.in неофициальное зеркало rutor. В случае если у Вас заблокирован rutor или вдруг Вы не можете на него зайти, то Вы без труда сможете скачать бесплатно и без рекламы последние новинки кино, игр, сериалов и прочего у нас, на Rutor.in. Не нужно использовать прокси, чтобы зайти на рутор, достаточно воспользоваться нашим ресурсом. Все новые фильмы, игры, сериалы, книги и музыка за 2013 и 2014 годы через торрент бесплатно. Скачивайте фильмы в хорошем качестве, игры для пк, xbox, playstation без регистрации. У нас вы найдете новые Зарубежные сериалы и Русские сериалы 2013, 2014, 2015 годов. Оставайтесь с нами, качайте любимые фильмы, игры, сериалы, книги и музыку.