img image001 image001 image001 image001 image001 image001 image001 image001 image001 image001 image001 image001 image001 image001 image001

Planets Sun Sun Sun
Статистика раздачи
Автор: Nickolas3434 | Размер: 4.62 ГБ | Добавлен: 29 авг 2014
Раздают: 1030    Качают: 165
Скачать торрент
Скачать торрент
Описание торрента

СообщениеДобавлено: 29 авг 2014 

«Волшебство только начинается»



Страна: Дания, Швеция / Copenhagen Bombay, Film i Väst
Жанр: мультфильм, фэнтези
Год выпуска: 2014
Продолжительность: 01:18:25
Перевод: Профессиональный (дублированный)
Cубтитры: нет
Оригинальная аудиодорожка: шведский
Режиссер: Эсбен Тофт Якобсен / Esben Toft Jacobsen
В ролях: Эдвин Рюдинг, Тува Новотны, Густаф Хаммарстен, Леннарт Якель, Сиселла Кайл, Лейф Андре, Pelle Falk Krusbæk, Сёс Эгелинд, Ларс Бригманн, Флемминг Квист Мюллер...
Роли дублировали: Марина Гладкая, Андрей Лёвин, Станислав Концевич, Галина Чигинская, Алексей Макрецкий
Описание: В поисках своей мамы Йохан попадает в далекое Царство Короля Перьев, откуда нет дороги назад. От судьбы не уйдешь: теперь он должен сам позаботиться о спасении не только своей мамы, но и всего королевства. Но разве можно понимать все тонкости жизни и играть по ее правилам, когда ты еще так молод?

Качество: BDRip 1080p / DVD5 R5 от Premium FILM - Лицензия + За тридевять земель.2014.BDRip(1080p).mkv
Формат: MKV
Видео: 1920x800 (2.40:1), MPEG-4 AVC 6472 Кбит/сек / 23.976 fps / Бит/(Пиксели*Кадры) : 0.176
Аудио 1: Dolby Digital Audio Russian 448 kbps 5.1 / 48 kHz
Аудио 2: DTS Audio Swedish 1536 kbps 5.1 / 48 kHz
Дополнительно: Фильм разбит на главы, как на оригинальном DVD диске
Раздача от:
Общее
Полное имя : Za.tridevyat.zemel.2014.BDRip.1080p.mkv
Формат : Matroska
Версия формата : Version 4 / Version 2
Размер файла : 4,62 Гбайт
Продолжительность : 1 ч. 18 м.
Общий поток : 8422 Кбит/сек
Дата кодирования : UTC 2014-08-27 05:48:49
Программа кодирования : mkvmerge v7.1.0 ('Good Love') 64bit built on Jul 27 2014 13:06:55
Библиотека кодирования : libebml v1.3.0 + libmatroska v1.4.1
DURATION : 01:18:28.928000000
NUMBER_OF_FRAMES : 147154
NUMBER_OF_BYTES : 263699968
_STATISTICS_WRITING_APP : mkvmerge v7.1.0 ('Good Love') 64bit built on Jul 27 2014 13:06:55
_STATISTICS_WRITING_DATE_UTC : 2014-08-27 05:48:49
_STATISTICS_TAGS : BPS DURATION NUMBER_OF_FRAMES NUMBER_OF_BYTES
Видео
Идентификатор : 1
Формат : AVC
Формат/Информация : Advanced Video Codec
Профиль формата : High@L4.1
Параметр CABAC формата : Да
Параметр ReFrames формата : 5 кадров
Идентификатор кодека : V_MPEG4/ISO/AVC
Продолжительность : 1 ч. 18 м.
Битрейт : 6472 Кбит/сек
Ширина : 1920 пикселей
Высота : 800 пикселей
Соотношение сторон : 2,40:1
Режим частоты кадров : Постоянный
Частота кадров : 23,976 кадра/сек
Цветовое пространство : YUV
Субдискретизация насыщенности : 4:2:0
Битовая глубина : 8 бит
Тип развёртки : Прогрессивная
Бит/(Пиксели*Кадры) : 0.176
Размер потока : 3,45 Гбайт (75%)
Библиотека кодирования : x264 core 142 r2453kMod ea0ca51
Настройки программы : cabac=1 / ref=5 / deblock=1:0:0 / analyse=0x3:0x133 / me=umh / subme=7 / psy=1 / fade_compensate=0.00 / psy_rd=1.00:0.00 / mixed_ref=1 / me_range=16 / chroma_me=1 / trellis=1 / 8x8dct=1 / cqm=0 / deadzone=21,11 / fast_pskip=0 / chroma_qp_offset=-2 / threads=6 / lookahead_threads=1 / sliced_threads=0 / nr=0 / decimate=1 / interlaced=0 / bluray_compat=0 / constrained_intra=0 / fgo=0 / bframes=3 / b_pyramid=2 / b_adapt=2 / b_bias=0 / direct=3 / weightb=1 / open_gop=0 / weightp=2 / keyint=250 / keyint_min=23 / scenecut=40 / intra_refresh=0 / rc_lookahead=50 / rc=2pass / mbtree=1 / bitrate=6472 / ratetol=1.0 / qcomp=0.60 / qpmin=0 / qpmax=69 / qpstep=4 / cplxblur=20.0 / qblur=0.5 / ip_ratio=1.40 / aq=1:1.00
Язык : Swedish
Default : Нет
Forced : Нет
DURATION : 01:18:24.659000000
NUMBER_OF_FRAMES : 112799
NUMBER_OF_BYTES : 3804793663
_STATISTICS_WRITING_APP : mkvmerge v7.1.0 ('Good Love') 64bit built on Jul 27 2014 13:06:55
_STATISTICS_WRITING_DATE_UTC : 2014-08-27 05:48:49
_STATISTICS_TAGS : BPS DURATION NUMBER_OF_FRAMES NUMBER_OF_BYTES
Аудио #1
Идентификатор : 2
Формат : AC-3
Формат/Информация : Audio Coding 3
Расширение режима : CM (complete main)
Параметр Endianness формата : Big
Идентификатор кодека : A_AC3
Продолжительность : 1 ч. 18 м.
Вид битрейта : Постоянный
Битрейт : 448 Кбит/сек
Каналы : 6 каналов
Расположение каналов : Front: L C R, Side: L R, LFE
Частота : 48,0 КГц
Битовая глубина : 16 бит
Метод сжатия : С потерями
Размер потока : 251 Мбайт (5%)
Язык : Russian
Default : Да
Forced : Нет
Аудио #2
Идентификатор : 3
Формат : DTS
Формат/Информация : Digital Theater Systems
Режим : 16
Параметр Endianness формата : Big
Идентификатор кодека : A_DTS
Продолжительность : 1 ч. 18 м.
Вид битрейта : Постоянный
Битрейт : 1509 Кбит/сек
Каналы : 6 каналов
Расположение каналов : Front: L C R, Side: L R, LFE
Частота : 48,0 КГц
Битовая глубина : 24 бит
Метод сжатия : С потерями
Размер потока : 847 Мбайт (18%)
Язык : Swedish
Default : Нет
Forced : Нет
Меню
00:00:00.000 : en:00:00:00.000
00:03:35.680 : en:00:03:35.680
00:08:08.800 : en:00:08:08.800
00:12:19.840 : en:00:12:19.840
00:16:19.440 : en:00:16:19.440
00:20:41.440 : en:00:20:41.440
00:25:21.760 : en:00:25:21.760
00:30:09.760 : en:00:30:09.760
00:34:00.160 : en:00:34:00.160
00:39:38.560 : en:00:39:38.560
00:45:40.000 : en:00:45:40.000
00:50:50.080 : en:00:50:50.080
00:55:37.120 : en:00:55:37.120
01:00:26.080 : en:01:00:26.080
01:06:08.400 : en:01:06:08.400
01:10:47.200 : en:01:10:47.200





   Похожие торренты   Торрент   Размер 
В этой теме нет новых непрочитанных сообщений. За тридевять земель / Resan till Fjäderkungens Rike (2014) BDRip 720p от New-Team | D | лицензия

433 | 90

3.52 ГБ

В этой теме нет новых непрочитанных сообщений. За тридевять земель / Resan till Fjäderkungens Rike (2014) DVD5 от New-Team | D | Лицензия

169 | 44

3.91 ГБ

В этой теме нет новых непрочитанных сообщений. За тридевять земель / Resan till Fjäderkungens Rike (2014) HDRip-AVC от New-Team | D | лицензия

970 | 51

1.46 ГБ

В этой теме нет новых непрочитанных сообщений. За тридевять земель / Resan till Fjäderkungens Rike (2014) HDRip от New-Team | D | лицензия

3055 | 398

1.45 ГБ

В этой теме нет новых непрочитанных сообщений. За тридевять земель / Resan till Fjäderkungens Rike (2014) HDRip | KinoGadget | iPad

135 | 8

1.04 ГБ

В этой теме нет новых непрочитанных сообщений. За тридевять земель / Resan till Fjaderkungens Rike (2013) BDRip 720p | Чистый звук

981 | 279

3.38 ГБ

В этой теме нет новых непрочитанных сообщений. За тридевять земель / Resan till Fjaderkungens Rike (2013) HDRip | Чистый звук

3927 | 583

1.37 ГБ




Вы не можете начинать темы
Вы не можете отвечать на сообщения
Вы не можете редактировать свои сообщения
Вы не можете удалять свои сообщения
Вы не можете добавлять вложения

Перейти:  
Для Мосгорсуда, Роскомнадзора и рекламодателей: mosgorsud-torrent[собачка]yandex.ru
 Вход
ppkBB3cker v.2 © 2008-2014 @ PPK
[ Time : 0.038s | 16 Queries | GZIP : Off ]

Торрент трекер RUTOR.IN, Не можете зайти на rutor.org? Какой новый адрес рутор? Какое зеркало рутор? Не работает rutor.org и зеркала? Тогда наш торрент специально для вас. Rutor.in неофициальное зеркало rutor. В случае если у Вас заблокирован rutor или вдруг Вы не можете на него зайти, то Вы без труда сможете скачать бесплатно и без рекламы последние новинки кино, игр, сериалов и прочего у нас, на Rutor.in. Не нужно использовать прокси, чтобы зайти на рутор, достаточно воспользоваться нашим ресурсом. Все новые фильмы, игры, сериалы, книги и музыка за 2013 и 2014 годы через торрент бесплатно. Скачивайте фильмы в хорошем качестве, игры для пк, xbox, playstation без регистрации. У нас вы найдете новые Зарубежные сериалы и Русские сериалы 2013, 2014, 2015 годов. Оставайтесь с нами, качайте любимые фильмы, игры, сериалы, книги и музыку.
cron