img image001 image001 image001 image001 image001 image001 image001 image001 image001 image001 image001 image001 image001 image001 image001

Planets Sun Sun Sun
Статистика раздачи
Автор: Nickolas3434 | Размер: 4.07 ГБ | Добавлен: 30 авг 2014
Раздают: 4    Качают: 6
Скачать торрент
Скачать торрент
Описание торрента

СообщениеДобавлено: 30 авг 2014 




Год выпуска: 2012-2013
Страна: США
Жанр: мультфильм, фантастика, боевик, драма, приключения слова
Продолжительность: 00:21:45
Перевод: Профессиональный (дублированный)
Субтитры: есть на инопланетную речь
Режиссер: Джей Олива, Майкл Чанг, Tim Divar,
Сценарий: Питер Дэвид, Николь Дюбюк, Пол Джакоппо,
Продюсер: Дэвид Уилкокс, Брэндон Виетти, Грег Уайзман,
Композитор: Кристофер Картер, Майкл МакКьюшен, Лолита Ритманис, ...
Монтаж: Джоанн Рейс
В ролях: Дэника МакКеллар,Джесси МакКартни,Нолан Норт,Хари Пэйтон,Стефани Николь Лемелин,Джейсон Спайсэк,Брюс Гринвуд,Масаса Мойо,Кевин Майкл Ричардсон,Криспин Фриман
Описание: Мультсериал о группе подростков-помощников Супергероев из Лиги Справедливости. Они захотели утвердиться и доказать своим опытным наставникам, что они готовы самостоятельно выполнять задания чрезвычайной опасности.
Премьера (мир): 26 ноября 2010, ...
Премьера (РФ): 15 июня 2012




Качество: WEB-DLRip
Формат: AVI
Видео кодек: XviD
Аудио кодеk: AC3
Видео: 720x400 (16:9), 23.976 fps, XviD 73, 1 532 Kbps
Аудио: Аудио #1: AC3, 192 Kbps, 48.0 KHz, 2 ch
Аудио #2: AC3, 192 Kbps, 48.0 KHz, 2 ch

General
Complete name : 1.avi
Format : AVI
Format/Info : Audio Video Interleave
File size : 300 MiB
Duration : 21mn 45s
Overall bit rate : 1 930 Kbps
Writing application : VirtualDubMod 1.5.10.3 | www.virtualdub-fr.org || (build 2550/release)
Writing library : VirtualDubMod build 2550/release
Video
ID : 0
Format : MPEG-4 Visual
Format profile : Advanced Simple@L5
Format settings, BVOP : 1
Format settings, QPel : No
Format settings, GMC : No warppoints
Format settings, Matrix : Custom
Codec ID : DIVX
Codec ID/Info : Project Mayo
Codec ID/Hint : DivX 4
Duration : 21mn 45s
Bit rate : 1 532 Kbps
Width : 720 pixels
Height : 400 pixels
Display aspect ratio : 16:9
Frame rate : 23.976 fps
Color space : YUV
Chroma subsampling : 4:2:0
Bit depth : 8 bits
Scan type : Progressive
Bits/(Pixel*Frame) : 0.222
Stream size : 238 MiB (79%)
Writing library : XviD 73
Audio #1
ID : 1
Format : AC-3
Format/Info : Audio Coding 3
Mode extension : CM (complete main)
Codec ID : 2000
Duration : 21mn 45s
Bit rate mode : Constant
Bit rate : 192 Kbps
Channel(s) : 2 channels
Channel positions : Front: L R
Sampling rate : 48.0 KHz
Bit depth : 16 bits
Stream size : 29.9 MiB (10%)
Alignment : Split accross interleaves
Interleave, duration : 42 ms (1.00 video frame)
Interleave, preload duration : 500 ms
Audio #2
ID : 2
Format : AC-3
Format/Info : Audio Coding 3
Mode extension : CM (complete main)
Codec ID : 2000
Duration : 21mn 45s
Bit rate mode : Constant
Bit rate : 192 Kbps
Channel(s) : 2 channels
Channel positions : Front: L R
Sampling rate : 48.0 KHz
Bit depth : 16 bits
Stream size : 29.9 MiB (10%)
Alignment : Split accross interleaves
Interleave, duration : 42 ms (1.00 video frame)
Interleave, preload duration : 500 ms




   Похожие торренты   Торрент   Размер 
В этой теме нет новых непрочитанных сообщений. Юная Справедливость: Вторжение / Young Justice: Invasion [02x01-08] (2012) WEB-DLRip | L

2 | 3

1.61 ГБ

В этой теме нет новых непрочитанных сообщений. Юная Справедливость: Вторжение / Young Justice: Invasion [02x01-11] (2012) WEB-DLRip | D

7 | 4

3.19 ГБ

В этой теме нет новых непрочитанных сообщений. Юная Справедливость: Вторжение / Young Justice: Invasion [02x01-04] (2012) WEB-DLRip | D

4 | 186

1.17 ГБ

В этой теме нет новых непрочитанных сообщений. Юная Справедливость: Вторжение / Young Justice: Invasion [02x01-02] (2012) WEB-DLRip | L

1 | 3

600.24 МБ

В этой теме нет новых непрочитанных сообщений. Юная Справедливость: Вторжение / Young Justice: Invasion [02x01-05] (2012) WEB-DLRip | D

19 | 13

1.47 ГБ

В этой теме нет новых непрочитанных сообщений. Юная Справедливость: Вторжение / Young Justice: Invasion [02x01-13] (2012-2013) WEB-DL 1080p | L

0 | 2

9.25 ГБ

В этой теме нет новых непрочитанных сообщений. Юная Справедливость: Вторжение / Young Justice: Invasion [S02] (2012-2013) WEB-DLRip | D

128 | 44

5.84 ГБ




Вы не можете начинать темы
Вы не можете отвечать на сообщения
Вы не можете редактировать свои сообщения
Вы не можете удалять свои сообщения
Вы не можете добавлять вложения

Перейти:  
Для Мосгорсуда, Роскомнадзора и рекламодателей: mosgorsud-torrent[собачка]yandex.ru
 Вход
ppkBB3cker v.2 © 2008-2014 @ PPK
[ Time : 0.041s | 14 Queries | GZIP : Off ]

Торрент трекер RUTOR.IN, Не можете зайти на rutor.org? Какой новый адрес рутор? Какое зеркало рутор? Не работает rutor.org и зеркала? Тогда наш торрент специально для вас. Rutor.in неофициальное зеркало rutor. В случае если у Вас заблокирован rutor или вдруг Вы не можете на него зайти, то Вы без труда сможете скачать бесплатно и без рекламы последние новинки кино, игр, сериалов и прочего у нас, на Rutor.in. Не нужно использовать прокси, чтобы зайти на рутор, достаточно воспользоваться нашим ресурсом. Все новые фильмы, игры, сериалы, книги и музыка за 2013 и 2014 годы через торрент бесплатно. Скачивайте фильмы в хорошем качестве, игры для пк, xbox, playstation без регистрации. У нас вы найдете новые Зарубежные сериалы и Русские сериалы 2013, 2014, 2015 годов. Оставайтесь с нами, качайте любимые фильмы, игры, сериалы, книги и музыку.