img image001 image001 image001 image001 image001 image001 image001 image001 image001 image001 image001 image001 image001 image001 image001

Planets Sun Sun Sun
Статистика раздачи
Автор: Nickolas3434 | Размер: 2.01 ГБ | Добавлен: 31 авг 2014
Раздают: 172    Качают: 11
Скачать торрент
Скачать торрент
Описание торрента

СообщениеДобавлено: 31 авг 2014 

Барби и потайная дверь / Barbie and The Secret Door (2014) BDRip-AVC | iPad | D

Название: Барби и потайная дверь
Оригинальное название: Barbie and The Secret Door
Год выхода: 2014
Жанр: мультфильм, семейный, полнометражный
Режиссер: Карен Ллойд
В ролях: Келли Шеридан, Кэти Краун и другие
О фильме:
В этом мультфильме Барби предстанет в образе принцессы Алексы, которой больше нравится читать книги, чем выполнять королевские обязанности и ритуалы. Однажды Алекса находит тайную дверь в своём королевском саду, эта дверь оказывается копией той, про которую читала принцесса. Принцесса Алекса открывает дверь и попадает в волшебный мир, наполненный сказочными созданиями. В этом мире принцесса встречает Роми и Нори — русалку и принцессу, которые рассказывают ей об испорченной юной правительнице этого мира, старающейся похитить и забрать всю магию.

Страна: США
Студия: Rainmaker Entertainment
Продолжительность: 01:20:51
Перевод: Русский дублированный
Файл
Кодек: H.264
Качество: BDRip-AVC [576p]
Видео: 1024x576 (16:9) at 23.976 fps, AVC at 3300 kbps
Звук:
1: АAС 2.0 137 kbps - Русский дублированный
2: АAС 2.0 137 kbps - Английский
Субтитры: Русский (forced), Английский (full)
General
Complete name : I:modoutBarbie.and.The.Secret.Door.2014.576p.D.m4v
Format : MPEG-4
Codec ID : M4V
File size : 2.01 GiB
Duration : 1h 20mn
Overall bit rate mode : Variable
Overall bit rate : 3 563 Kbps
Movie name : Барби и потайная дверь
Performer : Karen J Lloyd
Genre : Kids & Family
ContentType : Short Film
Deion : В этом мультфильме Барби предстанет в образе принцессы Алексы, которой больше нравится читать книги, чем выполнять королевские обязанности и ритуалы. Однажды Алекса находит тайную дверь в своей королевском саду, эта дверь оказывается копией той, про
Recorded date : UTC 2014-01-01 07:00:00
Encoded date : UTC 2014-08-30 08:52:35
Tagged date : UTC 2014-08-30 08:55:24
Copyright : Rainmaker Entertainment
Cover : Yes
ContentRating : mpaa|G|100|
Title/Sort : Barbie and the Secret Door
LongDeion : В этом мультфильме Барби предстанет в образе принцессы Алексы, которой больше нравится читать книги, чем выполнять королевские обязанности и ритуалы. Однажды Алекса находит тайную дверь в своей королевском саду, эта дверь оказывается копией той, про которую читала принцесса. Принцесса Алекса открывает дверь и попадает в волшебный мир, наполненный сказочными созданиями. В этом мире принцесса встречает Роми и Нори - русалку и принцессу, которые рассказывают ей об испорченной юной правительнице этого мира, старающейся похитить и забрать всю магию.
AppleStoreCatalogID : 888337117
Vendor : Apple:vendor_id:2014-838406
Video
ID : 1
Format : AVC
Format/Info : Advanced Video Codec
Format profile : High@L4.1
Format settings, CABAC : Yes
Format settings, ReFrames : 9 frames
Codec ID : avc1
Codec ID/Info : Advanced Video Coding
Duration : 1h 20mn
Bit rate : 3 278 Kbps
Maximum bit rate : 14.3 Mbps
Width : 1 024 pixels
Height : 576 pixels
Display aspect ratio : 16:9
Frame rate mode : Constant
Frame rate : 23.976 fps
Color space : YUV
Chroma subsampling : 4:2:0
Bit depth : 8 bits
Scan type : Progressive
Bits/(Pixel*Frame) : 0.232
Stream size : 1.85 GiB (92%)
Title : Barbie.and.The.Secret.Door.2014
Language : English
Encoded date : UTC 2014-08-30 08:52:35
Tagged date : UTC 2014-08-30 08:53:07
Audio #1
ID : 2
Format : AAC
Format/Info : Advanced Audio Codec
Format profile : LC
Codec ID : 40
Duration : 1h 20mn
Bit rate mode : Variable
Bit rate : 137 Kbps
Maximum bit rate : 188 Kbps
Channel(s) : 2 channels
Channel positions : Front: L R
Sampling rate : 48.0 KHz
Compression mode : Lossy
Stream size : 79.0 MiB (4%)
Title : DUB
Language : Russian
Encoded date : UTC 2014-08-30 08:44:33
Tagged date : UTC 2014-08-30 08:53:07
Audio #2
ID : 3
Format : AAC
Format/Info : Advanced Audio Codec
Format profile : LC
Codec ID : 40
Duration : 1h 20mn
Bit rate mode : Variable
Bit rate : 137 Kbps
Maximum bit rate : 190 Kbps
Channel(s) : 2 channels
Channel positions : Front: L R
Sampling rate : 48.0 KHz
Compression mode : Lossy
Stream size : 79.1 MiB (4%)
Language : English
Encoded date : UTC 2014-08-30 08:49:54
Tagged date : UTC 2014-08-30 08:53:07
Text #1
ID : 4
Format : Timed Text
Muxing mode : sbtl
Codec ID : tx3g
Duration : 1h 20mn
Bit rate mode : Variable
Bit rate : 0 bps
Stream size : 167 Bytes (0%)
Title : Forced
Language : Russian
Encoded date : UTC 2014-08-30 08:53:07
Tagged date : UTC 2014-08-30 08:53:07
Text #2
ID : 5
Format : Timed Text
Muxing mode : sbtl
Codec ID : tx3g
Duration : 1h 20mn
Bit rate mode : Variable
Bit rate : 70 bps
Stream size : 41.6 KiB (0%)
Title : Full
Language : English
Encoded date : UTC 2014-08-30 08:53:07
Tagged date : UTC 2014-08-30 08:53:07
Menu
ID : 6
Codec ID : text
Duration : 1h 20mn
Encoded date : UTC 2014-08-30 08:53:40
Tagged date : UTC 2014-08-30 08:53:40
Bit rate mode : CBR
Sort Name: Barbie and the Secret Door
XID: Apple:vendor_id:2014-838406
Content ID: 888337117
Copyright: Rainmaker Entertainment
Director: Karen J. Lloyd
Cast: Kelly Sheridan, Katie Crown, Nori, Chanelle Peloso, Ashleigh Ball
Rating: G
Long Deion: В этом мультфильме Барби предстанет в образе принцессы Алексы, которой больше нравится читать книги, чем выполнять королевские обязанности и ритуалы. Однажды Алекса находит тайную дверь в своей королевском саду, эта дверь оказывается копией той, про которую читала принцесса. Принцесса Алекса открывает дверь и попадает в волшебный мир, наполненный сказочными созданиями. В этом мире принцесса встречает Роми и Нори - русалку и принцессу, которые рассказывают ей об испорченной юной правительнице этого мира, старающейся похитить и забрать всю магию.
Deion: В этом мультфильме Барби предстанет в образе принцессы Алексы, которой больше нравится читать книги, чем выполнять королевские обязанности и ритуалы. Однажды Алекса находит тайную дверь в своей королевском саду, эта дверь оказывается копией той, про
Release Date: 2014-01-01T07:00:00Z
Genre: Kids & Family
Artist: Karen J Lloyd
Name: Барби и потайная дверь
x264 [info]: frame I:955 Avg QP:15.52 size:142038
x264 [info]: frame P:31674 Avg QP:19.94 size: 37588
x264 [info]: frame B:83698 Avg QP:23.85 size: 7905
x264 [info]: consecutive B-frames: 4.7% 5.5% 16.1% 33.8% 14.1% 18.7% 2.3% 1.6% 2.7% 0.2% 0.2% 0.1% 0.1%
x264 [info]: mb I I16..4: 7.6% 48.2% 44.2%
x264 [info]: mb P I16..4: 2.7% 11.7% 2.7% P16..4: 26.0% 27.8% 14.2% 5.0% 1.3% skip: 8.6%
x264 [info]: mb B I16..4: 0.4% 1.5% 0.3% B16..8: 25.6% 13.6% 2.7% direct: 3.9% skip:52.0% L0:34.3% L1:40.4% BI:25.3%
x264 [info]: 8x8 transform intra:66.0% inter:49.2%
x264 [info]: coded y,uvDC,uvAC intra: 74.1% 85.4% 68.0% inter: 18.7% 22.5% 16.1%
x264 [info]: i16 v,h,dc,p: 9% 11% 5% 75%
x264 [info]: i8 v,h,dc,ddl,ddr,vr,hd,vl,hu: 15% 16% 6% 7% 10% 11% 11% 11% 13%
x264 [info]: i4 v,h,dc,ddl,ddr,vr,hd,vl,hu: 15% 14% 8% 7% 13% 12% 11% 9% 10%
x264 [info]: i8c dc,h,v,p: 31% 24% 18% 26%
x264 [info]: Weighted P-Frames: Y:2.6% UV:1.9%
x264 [info]: ref P L0: 63.6% 16.1% 10.0% 3.6% 2.3% 1.6% 1.2% 0.7% 0.7% 0.1% 0.0%
x264 [info]: ref B L0: 90.5% 5.4% 1.9% 0.8% 0.5% 0.4% 0.3% 0.2%
x264 [info]: ref B L1: 95.5% 4.5%
x264 [info]: kb/s:3277.72




   Похожие торренты   Торрент   Размер 
В этой теме нет новых непрочитанных сообщений. Барби и потайная дверь / Barbie and The Secret Door (2014) BDRip 720 от SuperMin

350 | 27

2.21 ГБ

В этой теме нет новых непрочитанных сообщений. Барби и потайная дверь / Barbie and the Secret Door (2014) BDRip-AVC от ExKinoRay | D | Лицензия

675 | 30

1.93 ГБ

В этой теме нет новых непрочитанных сообщений. Барби и потайная дверь / Barbie and the Secret Door (2014) BDRip 720p от ExKinoRay | D | Лицензия

442 | 20

3.58 ГБ

В этой теме нет новых непрочитанных сообщений. Барби и потайная дверь / Barbie and the Secret Door (2014) BDRip 1080p от ExKinoRay | D | Лицензия

274 | 19

5.73 ГБ

В этой теме нет новых непрочитанных сообщений. Барби и потайная дверь / Barbie and the Secret Door (2014) Blu-ray 1080p | EUR Transfer | D

16 | 10

36.03 ГБ

В этой теме нет новых непрочитанных сообщений. Барби и потайная дверь / Barbie and the Secret Door (2014) HDRip | D | Лицензия

931 | 66

743.91 МБ

В этой теме нет новых непрочитанных сообщений. Барби: Тайна Феи / Barbie: A Fairy Secret (2011) DVDRip

498 | 15

1.46 ГБ




Вы не можете начинать темы
Вы не можете отвечать на сообщения
Вы не можете редактировать свои сообщения
Вы не можете удалять свои сообщения
Вы не можете добавлять вложения

Перейти:  
Для Мосгорсуда, Роскомнадзора и рекламодателей: mosgorsud-torrent[собачка]yandex.ru
 Вход
ppkBB3cker v.2 © 2008-2014 @ PPK
[ Time : 0.035s | 16 Queries | GZIP : Off ]

cron