img image001 image001 image001 image001 image001 image001 image001 image001 image001 image001 image001 image001 image001 image001 image001

Planets Sun Sun Sun
Статистика раздачи
Автор: Nickolas3434 | Размер: 2.58 ГБ | Добавлен: 31 авг 2014
Раздают: 22    Качают: 8
Скачать торрент
Скачать торрент
Описание торрента

СообщениеДобавлено: 31 авг 2014 

Информация о фильме
Название: Морская бригада
Оригинальное название: SeaFood
Год выхода: 2011
Жанр: мультфильм
Режиссер: Аун Хое Го/ Aun Hoe Goh
В ролях: Роли дублировали: Денис Беспалый, Андрей Чижов, Константин Карасик, Диамид Виноградов, Любовь Гермонова, Татьяна Шитова
О фильме:
Две бамбуковые акулы — Пап и Джулиус — покидают свой родной риф и отправляются в рискованное и увлекательное приключение к берегам континента с целью спасти своих собратьев от распоясавшихся браконьеров.
Страна: Малайзия
Студия: Duka Film
Продолжительность: 01:32:05
Перевод: Дубляж
Файл
Кодек: h264
Качество: BDRip 720 от SuperMin
Видео: 1280x720 (16:9), 3553 kbps, 23.976 fps, 0.161 bit/pixel
Звук: Русский (AC-3, 6ch, 384kbps)
General
Unique ID : 56808053766742305642257690564998624860 (0x2ABCD54B7E0F3B44A2B2CB0A381E765C)
Complete name : H:МУЛЬТЫМОРСКАЯ БРИГАДА.mkv
Format : Matroska
Format version : Version 2
File size : 2.58 GiB
Duration : 1h 32mn
Overall bit rate : 4 017 Kbps
Writing application : XviD4PSP 6.0 / 54.29.105
Writing library : XviD4PSP 6.0 / 54.29.105
Video
ID : 1
Format : AVC
Format/Info : Advanced Video Codec
Format profile : High@L4.1
Format settings, CABAC : Yes
Format settings, ReFrames : 8 frames
Codec ID : V_MPEG4/ISO/AVC
Duration : 1h 32mn
Bit rate : 3 553 Kbps
Nominal bit rate : 3 800 Kbps
Width : 1 280 pixels
Height : 720 pixels
Display aspect ratio : 16:9
Frame rate mode : Constant
Frame rate : 24.000 fps
Color space : YUV
Chroma subsampling : 4:2:0
Bit depth : 8 bits
Scan type : Progressive
Bits/(Pixel*Frame) : 0.161
Stream size : 2.29 GiB (88%)
Writing library : x264 core 128 r2216M 198a7ea
Encoding settings : cabac=1 / ref=8 / deblock=1:0:0 / analyse=0x3:0x133 / me=umh / subme=9 / psy=1 / psy_rd=1.00:0.00 / mixed_ref=1 / me_range=24 / chroma_me=1 / trellis=1 / 8x8dct=1 / cqm=0 / deadzone=21,11 / fast_pskip=0 / chroma_qp_offset=-2 / threads=2 / lookahead_threads=1 / sliced_threads=0 / nr=0 / decimate=0 / interlaced=0 / bluray_compat=0 / constrained_intra=0 / bframes=5 / b_pyramid=2 / b_adapt=1 / b_bias=0 / direct=3 / weightb=1 / open_gop=0 / weightp=2 / keyint=240 / keyint_min=24 / scenecut=40 / intra_refresh=0 / rc_lookahead=40 / rc=cbr / mbtree=1 / bitrate=3800 / ratetol=1.0 / qcomp=0.70 / qpmin=10 / qpmax=51 / qpstep=4 / vbv_maxrate=3800 / vbv_bufsize=3800 / nal_hrd=none / ip_ratio=1.40 / aq=1:0.80
Default : Yes
Forced : No
Audio
ID : 2
Format : AC-3
Format/Info : Audio Coding 3
Mode extension : CM (complete main)
Format settings, Endianness : Big
Codec ID : A_AC3
Duration : 1h 32mn
Bit rate mode : Constant
Bit rate : 384 Kbps
Channel count : 6 channels
Channel positions : Front: L C R, Side: L R, LFE
Sampling rate : 48.0 KHz
Bit depth : 16 bits
Compression mode : Lossy
Delay relative to video : 67ms
Stream size : 253 MiB (10%)
Default : Yes
Forced : No

Релиз от: SuperMin



   Похожие торренты   Торрент   Размер 
В этой теме нет новых непрочитанных сообщений. Морская бригада / SeaFood (2011) BDRip 1080p от Freeisland

2 | 6

4.37 ГБ

В этой теме нет новых непрочитанных сообщений. Морская бригада / SeaFood (2011) BDRip 720p от FREEISLAND

5 | 3

4.37 ГБ

В этой теме нет новых непрочитанных сообщений. Морская бригада / SeaFood (2011) DVD5

1 | 3

4.25 ГБ

В этой теме нет новых непрочитанных сообщений. Морская бригада / SeaFood (2011) HDRip

10 | 6

700.11 МБ

В этой теме нет новых непрочитанных сообщений. Морская бригада / SeaFood (2011) Blu-Ray 1080p

0 | 3

16.32 ГБ

В этой теме нет новых непрочитанных сообщений. Морская бригада / SeaFood (2011) DVDRip | Лицензия

38 | 3

1.37 ГБ

В этой теме нет новых непрочитанных сообщений. Морская бригада / SeeFood (2011) BDRip-AVC

8 | 3

1.7 ГБ




Вы не можете начинать темы
Вы не можете отвечать на сообщения
Вы не можете редактировать свои сообщения
Вы не можете удалять свои сообщения
Вы не можете добавлять вложения

Перейти:  
Для Мосгорсуда, Роскомнадзора и рекламодателей: mosgorsud-torrent[собачка]yandex.ru
 Вход
ppkBB3cker v.2 © 2008-2014 @ PPK
[ Time : 0.156s | 15 Queries | GZIP : Off ]

Торрент трекер RUTOR.IN, Не можете зайти на rutor.org? Какой новый адрес рутор? Какое зеркало рутор? Не работает rutor.org и зеркала? Тогда наш торрент специально для вас. Rutor.in неофициальное зеркало rutor. В случае если у Вас заблокирован rutor или вдруг Вы не можете на него зайти, то Вы без труда сможете скачать бесплатно и без рекламы последние новинки кино, игр, сериалов и прочего у нас, на Rutor.in. Не нужно использовать прокси, чтобы зайти на рутор, достаточно воспользоваться нашим ресурсом. Все новые фильмы, игры, сериалы, книги и музыка за 2013 и 2014 годы через торрент бесплатно. Скачивайте фильмы в хорошем качестве, игры для пк, xbox, playstation без регистрации. У нас вы найдете новые Зарубежные сериалы и Русские сериалы 2013, 2014, 2015 годов. Оставайтесь с нами, качайте любимые фильмы, игры, сериалы, книги и музыку.