img image001 image001 image001 image001 image001 image001 image001 image001 image001 image001 image001 image001 image001 image001 image001

Planets Sun Sun Sun
Статистика раздачи
Автор: Nickolas3434 | Размер: 1.65 ГБ | Добавлен: 31 авг 2014
Раздают: 113    Качают: 11
Скачать торрент
Скачать торрент
Описание торрента

СообщениеДобавлено: 31 авг 2014 

Коты-аристократы / The AristoCats (1970) BDRip-AVC | iPad | D
«A purr-fectly wonderful new cartoon feature»

Название: Коты-аристократы
Оригинальное название: The AristoCats
Год выхода: 1970
Жанр: мультфильм, комедия, приключения, семейный, музыка
Режиссер: Вольфганг Райтерман
В ролях: Фил Харрис, Ева Габор, Стерлинг Холлоуэй, Скэтмэн Крозерс, Дин Кларк, Пол Уинчелл, Лиз Инглиш, Турль Рейвенскрофт, Гари Дубин, Вито Скотти
О фильме:
В аристократическом доме в Париже живет мама-кошка с тремя котятами. Хозяйка безумно любит их и по завещанию все должно отойти этим очаровательным животным. Но злой дворецкий хочет, чтобы деньги достались только ему.
Он похищает ее любимцев и бросает в деревне. Вернуться домой им помогает восхитительный и очаровательный бродячий кот с его друзьями.

Страна: США
Студия: Walt Disney Pictures
Продолжительность: 01:18:27
Перевод: Русский дублированный
Файл
Кодек: H.264
Качество: BDRip-AVC [576p]
Видео: 956x576 (1.66) at 23.976 fps, AVC at 2800 kbps
Звук:
1: АAС 2.0 116 kbps - Русский дублированный
2: АAС 2.0 100 kbps - Английский
Субтитры: Русский (full), Английский (full)
General
Complete name : I:modoutThe.AristoCats.1970.576p.D.m4v
Format : MPEG-4
Codec ID : M4V
File size : 1.65 GiB
Duration : 1h 18mn
Overall bit rate mode : Variable
Overall bit rate : 3 002 Kbps
Movie name : Коты-аристократы
Performer : Wolfgang Reitherman
Genre : Action & Adventure
ContentType : Short Film
Deion : В аристократическом доме в Париже живет мама-кошка с тремя котятами. Хозяйка безумно любит их и по завещанию все должно отойти этим очаровательным животным. Но злой дворецкий хочет, чтобы деньги достались только ему.
Recorded date : UTC 1970-12-24 08:00:00
Encoded date : UTC 2014-08-30 14:31:00
Tagged date : UTC 2014-08-30 14:33:52
Copyright : © 1970 Disney Enterprises, Inc. All Rights Reserved.
Cover : Yes
Comment : «A purr-fectly wonderful new cartoon feature»
ContentRating : mpaa|G|100|
Title/Sort : The Aristocats
LongDeion : В аристократическом доме в Париже живет мама-кошка с тремя котятами. Хозяйка безумно любит их и по завещанию все должно отойти этим очаровательным животным. Но злой дворецкий хочет, чтобы деньги достались только ему. Он похищает ее любимцев и бросает в деревне. Вернуться домой им помогает восхитительный и очаровательный бродячий кот с его друзьями.
AppleStoreCatalogID : 548877390
Vendor : Apple:vendor_id:1970-26656
Video
ID : 1
Format : AVC
Format/Info : Advanced Video Codec
Format profile : High@L4.1
Format settings, CABAC : Yes
Format settings, ReFrames : 9 frames
Codec ID : avc1
Codec ID/Info : Advanced Video Coding
Duration : 1h 18mn
Bit rate : 2 773 Kbps
Maximum bit rate : 14.8 Mbps
Width : 956 pixels
Height : 576 pixels
Display aspect ratio : 1.660
Frame rate mode : Constant
Frame rate : 23.976 fps
Color space : YUV
Chroma subsampling : 4:2:0
Bit depth : 8 bits
Scan type : Progressive
Bits/(Pixel*Frame) : 0.210
Stream size : 1.52 GiB (92%)
Title : The.AristoCats.1970
Language : English
Encoded date : UTC 2014-08-30 14:31:00
Tagged date : UTC 2014-08-30 14:31:16
Audio #1
ID : 2
Format : AAC
Format/Info : Advanced Audio Codec
Format profile : LC
Codec ID : 40
Duration : 1h 18mn
Bit rate mode : Variable
Bit rate : 116 Kbps
Maximum bit rate : 163 Kbps
Channel(s) : 2 channels
Channel positions : Front: L R
Sampling rate : 48.0 KHz
Compression mode : Lossy
Stream size : 64.8 MiB (4%)
Title : DUB
Language : Russian
Encoded date : UTC 2014-08-30 14:24:59
Tagged date : UTC 2014-08-30 14:31:16
Audio #2
ID : 3
Format : AAC
Format/Info : Advanced Audio Codec
Format profile : LC
Codec ID : 40
Duration : 1h 18mn
Bit rate mode : Variable
Bit rate : 99.1 Kbps
Maximum bit rate : 137 Kbps
Channel(s) : 2 channels
Channel positions : Front: L R
Sampling rate : 48.0 KHz
Compression mode : Lossy
Stream size : 55.6 MiB (3%)
Language : English
Encoded date : UTC 2014-08-30 14:29:02
Tagged date : UTC 2014-08-30 14:31:16
Text #1
ID : 4
Format : Timed Text
Muxing mode : sbtl
Codec ID : tx3g
Duration : 1h 18mn
Bit rate mode : Variable
Bit rate : 103 bps
Stream size : 59.3 KiB (0%)
Title : full
Language : Russian
Encoded date : UTC 2014-08-30 14:31:16
Tagged date : UTC 2014-08-30 14:31:16
Text #2
ID : 5
Format : Timed Text
Muxing mode : sbtl
Codec ID : tx3g
Duration : 1h 18mn
Bit rate mode : Variable
Bit rate : 80 bps
Stream size : 45.8 KiB (0%)
Title : full
Language : English
Encoded date : UTC 2014-08-30 14:31:16
Tagged date : UTC 2014-08-30 14:31:16
Menu
ID : 6
Codec ID : text
Duration : 1h 18mn
Encoded date : UTC 2014-08-30 14:31:40
Tagged date : UTC 2014-08-30 14:31:40
Bit rate mode : CBR
Sort Name: The Aristocats
XID: Apple:vendor_id:1970-26656
Content ID: 548877390
Copyright: © 1970 Disney Enterprises, Inc. All Rights Reserved.
ScreenWriters: Ларри Клеммонс, Вэнс Джерри, Кен Андерсон
Producers: Уинстон Хиблер, Вольфганг Райтерман
Director: Вольфганг Райтерман
Cast: Фил Харрис, Ева Габор, Стерлинг Холлоуэй, Скэтмэн Крозерс, Дин Кларк, Пол Уинчелл, Лиз Инглиш, Турль Рейвенскрофт, Гари Дубин, Вито Скотти / Phil Harris (O'Malley), Sterling Holloway (Roquefort), Scatman Crothers (Scat Cat), Eva Gabor (Duchess), Paul Winchell (Chinese Cat), Lord Tim Hudson (English Cat), Vito Scotti (Italian Cat), Thurl Ravenscroft (Russian Cat), Dean Clark (Berlioz), Liz English (Marie), Gary Dubin (Toulouse), Nancy Kulp (Frou-Frou), Pat Buttram (Napoleon), George Lindsey (Lafayette), Monica Evans (Abigail)
Rating: G
Long Deion: В аристократическом доме в Париже живет мама-кошка с тремя котятами. Хозяйка безумно любит их и по завещанию все должно отойти этим очаровательным животным. Но злой дворецкий хочет, чтобы деньги достались только ему. Он похищает ее любимцев и бросает в деревне. Вернуться домой им помогает восхитительный и очаровательный бродячий кот с его друзьями.
Deion: В аристократическом доме в Париже живет мама-кошка с тремя котятами. Хозяйка безумно любит их и по завещанию все должно отойти этим очаровательным животным. Но злой дворецкий хочет, чтобы деньги достались только ему.
Release Date: 1970-12-24T08:00:00Z
Genre: Action & Adventure
Artist: Wolfgang Reitherman
Name: Коты-аристократы
Comments: «A purr-fectly wonderful new cartoon feature»
x264 [info]: frame I:1020 Avg QP:13.74 size:128707
x264 [info]: frame P:30358 Avg QP:18.87 size: 32094
x264 [info]: frame B:81496 Avg QP:22.80 size: 6456
x264 [info]: consecutive B-frames: 4.2% 4.2% 18.8% 31.4% 22.7% 11.7% 2.5% 1.5% 1.7% 0.5% 0.2% 0.4% 0.2%
x264 [info]: mb I I16..4: 8.3% 23.2% 68.5%
x264 [info]: mb P I16..4: 2.6% 3.6% 5.7% P16..4: 26.3% 24.1% 18.4% 7.2% 2.4% skip: 9.7%
x264 [info]: mb B I16..4: 0.3% 0.6% 1.0% B16..8: 26.4% 9.5% 2.7% direct: 2.0% skip:57.5% L0:41.5% L1:48.0% BI:10.6%
x264 [info]: 8x8 transform intra:29.4% inter:21.7%
x264 [info]: coded y,uvDC,uvAC intra: 60.5% 60.6% 44.9% inter: 16.2% 13.8% 8.3%
x264 [info]: i16 v,h,dc,p: 13% 14% 15% 59%
x264 [info]: i8 v,h,dc,ddl,ddr,vr,hd,vl,hu: 10% 13% 21% 7% 9% 7% 10% 8% 14%
x264 [info]: i4 v,h,dc,ddl,ddr,vr,hd,vl,hu: 16% 15% 24% 6% 9% 7% 8% 6% 9%
x264 [info]: i8c dc,h,v,p: 32% 38% 19% 11%
x264 [info]: Weighted P-Frames: Y:13.4% UV:6.6%
x264 [info]: ref P L0: 57.0% 11.2% 12.9% 5.5% 3.9% 3.1% 2.6% 1.7% 1.6% 0.4% 0.0%
x264 [info]: ref B L0: 81.1% 8.7% 4.0% 2.0% 1.5% 1.2% 1.0% 0.6%
x264 [info]: ref B L1: 93.9% 6.1%
x264 [info]: kb/s:2772.86




   Похожие торренты   Торрент   Размер 
В этой теме нет новых непрочитанных сообщений. Коты - аристократы / The Aristocats (1970) BDRip 720p

88 | 5

3.78 ГБ

В этой теме нет новых непрочитанных сообщений. Коты-аристократы / The AristoCats (1970) BDRip 720p | D, P, A

62 | 12

5.14 ГБ

В этой теме нет новых непрочитанных сообщений. Коты-аристократы / The AristoCats (1970) BDRip от HQCLUB

130 | 13

1.45 ГБ

В этой теме нет новых непрочитанных сообщений. Коты-аристократы / The AristoCats (1970) BDRip 1080p | D, P, A

71 | 4

7.06 ГБ

В этой теме нет новых непрочитанных сообщений. Коты-аристократы / The AristoCats (1970) BDRip от HELLYWOOD

527 | 24

1.45 ГБ

В этой теме нет новых непрочитанных сообщений. Коты-аристократы / The AristoCats (1970) BDRip 1080p от Freeisland

44 | 5

4.34 ГБ

В этой теме нет новых непрочитанных сообщений. Коты-аристократы / The AristoCats (1970) BDRip 720p от Leonardo and Scarabey

122 | 12

2 ГБ




Вы не можете начинать темы
Вы не можете отвечать на сообщения
Вы не можете редактировать свои сообщения
Вы не можете удалять свои сообщения
Вы не можете добавлять вложения

Перейти:  
Для Мосгорсуда, Роскомнадзора и рекламодателей: mosgorsud-torrent[собачка]yandex.ru
 Вход
ppkBB3cker v.2 © 2008-2014 @ PPK
[ Time : 0.034s | 15 Queries | GZIP : Off ]

Торрент трекер RUTOR.IN, Не можете зайти на rutor.org? Какой новый адрес рутор? Какое зеркало рутор? Не работает rutor.org и зеркала? Тогда наш торрент специально для вас. Rutor.in неофициальное зеркало rutor. В случае если у Вас заблокирован rutor или вдруг Вы не можете на него зайти, то Вы без труда сможете скачать бесплатно и без рекламы последние новинки кино, игр, сериалов и прочего у нас, на Rutor.in. Не нужно использовать прокси, чтобы зайти на рутор, достаточно воспользоваться нашим ресурсом. Все новые фильмы, игры, сериалы, книги и музыка за 2013 и 2014 годы через торрент бесплатно. Скачивайте фильмы в хорошем качестве, игры для пк, xbox, playstation без регистрации. У нас вы найдете новые Зарубежные сериалы и Русские сериалы 2013, 2014, 2015 годов. Оставайтесь с нами, качайте любимые фильмы, игры, сериалы, книги и музыку.