img image001 image001 image001 image001 image001 image001 image001 image001 image001 image001 image001 image001 image001 image001 image001

Planets Sun Sun Sun
Статистика раздачи
Автор: Nickolas3434 | Размер: 2.21 ГБ | Добавлен: 02 сен 2014
Раздают: 350    Качают: 27
Скачать торрент
Скачать торрент
Описание торрента

СообщениеДобавлено: 02 сен 2014 

Информация о фильме
Название: Барби и потайная дверь
Оригинальное название: Barbie and The Secret Door
Год выхода: 2014
Жанр: мультфильм, семейный, полнометражный
Режиссер: Карен Ллойд
В ролях: Келли Шеридан, Кэти Краун
О фильме:
В этом мультфильме Барби предстанет в образе принцессы Алексы, которой больше нравится читать книги, чем выполнять королевские обязанности и ритуалы. Однажды Алекса находит тайную дверь в своём королевском саду, эта дверь оказывается копией той, про которую читала принцесса. Принцесса Алекса открывает дверь и попадает в волшебный мир, наполненный сказочными созданиями. В этом мире принцесса встречает Роми и Нори — русалку и принцессу, которые рассказывают ей об испорченной юной правительнице этого мира, старающейся похитить и забрать всю магию...
Страна: США
Студия: Rainmaker Entertainment
Продолжительность: 01:20:52
Перевод: Дубляж
Файл
Кодек: h264
Качество: BDRip 720 от SuperMin
Видео: 1280x720 (16:9), 3500 kbps, 23.976 fps, 0.158 bit/pixel
Звук: Русский (AC-3, 6ch, 448kbps)

General
Unique ID : 200552666187296060965139587850109330223 (0x96E109DCB01E6FDF91E37CB9462E232F)
Complete name : H:МУЛЬТЫБАРБИБАРБИ И ПОТАЙНАЯ ДВЕРЬ.mkv
Format : Matroska
Format version : Version 4 / Version 2
File size : 2.21 GiB
Duration : 1h 20mn
Overall bit rate : 3 915 Kbps
Encoded date : UTC 2014-08-31 08:05:10
Writing application : mkvmerge v6.9.1 ('Blue Panther') 64bit built on Apr 18 2014 18:23:38
Writing library : libebml v1.3.0 + libmatroska v1.4.1
Video
ID : 1
Format : AVC
Format/Info : Advanced Video Codec
Format profile : High@L4.1
Format settings, CABAC : Yes
Format settings, ReFrames : 9 frames
Codec ID : V_MPEG4/ISO/AVC
Duration : 1h 20mn
Bit rate : 3 500 Kbps
Width : 1 280 pixels
Height : 720 pixels
Display aspect ratio : 16:9
Frame rate mode : Constant
Frame rate : 23.976 fps
Color space : YUV
Chroma subsampling : 4:2:0
Bit depth : 8 bits
Scan type : Progressive
Bits/(Pixel*Frame) : 0.158
Stream size : 1.91 GiB (87%)
Writing library : x264 core 142 r2409kMod d6b4e63
Encoding settings : cabac=1 / ref=9 / deblock=1:0:0 / analyse=0x3:0x133 / me=umh / subme=10 / psy=1 / fade_compensate=0.00 / psy_rd=1.00:0.00 / mixed_ref=1 / me_range=32 / chroma_me=1 / trellis=2 / 8x8dct=1 / cqm=0 / deadzone=21,11 / fast_pskip=0 / chroma_qp_offset=-2 / threads=3 / lookahead_threads=1 / sliced_threads=0 / nr=0 / decimate=1 / interlaced=0 / bluray_compat=0 / constrained_intra=0 / fgo=0 / bframes=5 / b_pyramid=2 / b_adapt=1 / b_bias=0 / direct=3 / weightb=1 / open_gop=0 / weightp=2 / keyint=250 / keyint_min=25 / scenecut=40 / intra_refresh=0 / rc_lookahead=60 / rc=2pass / mbtree=1 / bitrate=3500 / ratetol=1.0 / qcomp=0.60 / qpmin=0 / qpmax=69 / qpstep=4 / cplxblur=20.0 / qblur=0.5 / ip_ratio=1.40 / aq=1:1.00
Default : Yes
Forced : No
Audio
ID : 2
Format : AC-3
Format/Info : Audio Coding 3
Mode extension : CM (complete main)
Format settings, Endianness : Big
Codec ID : A_AC3
Duration : 1h 20mn
Bit rate mode : Constant
Bit rate : 448 Kbps
Channel count : 6 channels
Channel positions : Front: L C R, Side: L R, LFE
Sampling rate : 48.0 KHz
Bit depth : 16 bits
Compression mode : Lossy
Stream size : 259 MiB (11%)
Default : Yes
Forced : No
Релиз от: SuperMin



   Похожие торренты   Торрент   Размер 
В этой теме нет новых непрочитанных сообщений. Барби и потайная дверь / Barbie and The Secret Door (2014) BDRip-AVC | iPad | D

172 | 11

2.01 ГБ

В этой теме нет новых непрочитанных сообщений. Барби и потайная дверь / Barbie and the Secret Door (2014) BDRip-AVC от ExKinoRay | D | Лицензия

675 | 30

1.93 ГБ

В этой теме нет новых непрочитанных сообщений. Барби и потайная дверь / Barbie and the Secret Door (2014) BDRip 1080p от ExKinoRay | D | Лицензия

274 | 19

5.73 ГБ

В этой теме нет новых непрочитанных сообщений. Барби и потайная дверь / Barbie and the Secret Door (2014) BDRip 720p от ExKinoRay | D | Лицензия

442 | 20

3.58 ГБ

В этой теме нет новых непрочитанных сообщений. Барби и потайная дверь / Barbie and the Secret Door (2014) Blu-ray 1080p | EUR Transfer | D

16 | 10

36.03 ГБ

В этой теме нет новых непрочитанных сообщений. Барби и потайная дверь / Barbie and the Secret Door (2014) HDRip | D | Лицензия

931 | 66

743.91 МБ

В этой теме нет новых непрочитанных сообщений. Барби: Жемчужная Принцесса / Barbie: The Pearl Princess (2014) BDRip 720 от SuperMin

305 | 32

2.13 ГБ




Вы не можете начинать темы
Вы не можете отвечать на сообщения
Вы не можете редактировать свои сообщения
Вы не можете удалять свои сообщения
Вы не можете добавлять вложения

Перейти:  
Для Мосгорсуда, Роскомнадзора и рекламодателей: mosgorsud-torrent[собачка]yandex.ru
 Вход
ppkBB3cker v.2 © 2008-2014 @ PPK
[ Time : 0.028s | 19 Queries | GZIP : Off ]

cron