img image001 image001 image001 image001 image001 image001 image001 image001 image001 image001 image001 image001 image001 image001 image001

Planets Sun Sun Sun
Статистика раздачи
Автор: Nickolas3434 | Размер: 2.13 ГБ | Добавлен: 02 сен 2014
Раздают: 305    Качают: 32
Скачать торрент
Скачать торрент
Описание торрента

СообщениеДобавлено: 02 сен 2014 

Информация о фильме
Название: Барби: Жемчужная Принцесса
Оригинальное название: Barbie: The Pearl Princess
Год выхода: 2014
Жанр: мультфильм, фэнтези, приключения
Режиссер: Терри Классен / Terry Klassen
В ролях: Келли Шеридан, Кейт Кровн, Марк Оливер, Ребекка Шойчет, Патрисия Паттенден, Джон Новак, Саймон Хилл, Питер Нъю, Кетлин Барр, Патрик Гилмор, Луис Чирилло, Джеймс Хигучи
О фильме:
Полнометражный мультфильм Barbie™ «Жемчужная принцесса» посвящен приключениям главной героини по имени Лумина. Она работает стилистом в салоне красоты, обладает способностью менять цвет жемчуга и даже не подозревает о том, что на самом деле является принцессой-русалкой. История полна захватывающих приключений, перевоплощений и неожиданных сюжетных поворотов...
Страна: США
Продолжительность: 01:13:35
Перевод: Дубляж
Файл
Кодек: h264
Качество: BDRip 720 от SuperMin
Видео: 1280x720 (16:9), 3700 kbps, 23.976 fps, 0.167 bit/pixel
Звук: Русский (AC-3, 6ch, 384kbps)

General
Unique ID : 206688882372222447496412796435931187609 (0x9B7ED4AD8E6BA5E0B9ED5E232959C999)
Complete name : H:МУЛЬТЫБАРБИБАРБИ - ЖЕМЧУЖНАЯ ПРИНЦЕССА.mkv
Format : Matroska
Format version : Version 4 / Version 2
File size : 2.13 GiB
Duration : 1h 13mn
Overall bit rate : 4 142 Kbps
Encoded date : UTC 2014-09-01 06:44:05
Writing application : mkvmerge v6.9.1 ('Blue Panther') 64bit built on Apr 18 2014 18:23:38
Writing library : libebml v1.3.0 + libmatroska v1.4.1
Video
ID : 1
Format : AVC
Format/Info : Advanced Video Codec
Format profile : High@L4.1
Format settings, CABAC : Yes
Format settings, ReFrames : 9 frames
Codec ID : V_MPEG4/ISO/AVC
Duration : 1h 13mn
Bit rate : 3 700 Kbps
Width : 1 280 pixels
Height : 720 pixels
Display aspect ratio : 16:9
Frame rate mode : Constant
Frame rate : 23.976 fps
Color space : YUV
Chroma subsampling : 4:2:0
Bit depth : 8 bits
Scan type : Progressive
Bits/(Pixel*Frame) : 0.167
Stream size : 1.86 GiB (87%)
Writing library : x264 core 142 r2409kMod d6b4e63
Encoding settings : cabac=1 / ref=9 / deblock=1:0:0 / analyse=0x3:0x133 / me=umh / subme=10 / psy=1 / fade_compensate=0.00 / psy_rd=1.00:0.00 / mixed_ref=1 / me_range=32 / chroma_me=1 / trellis=2 / 8x8dct=1 / cqm=0 / deadzone=21,11 / fast_pskip=0 / chroma_qp_offset=-2 / threads=3 / lookahead_threads=1 / sliced_threads=0 / nr=0 / decimate=1 / interlaced=0 / bluray_compat=0 / constrained_intra=0 / fgo=0 / bframes=5 / b_pyramid=2 / b_adapt=1 / b_bias=0 / direct=3 / weightb=1 / open_gop=0 / weightp=2 / keyint=250 / keyint_min=25 / scenecut=40 / intra_refresh=0 / rc_lookahead=60 / rc=2pass / mbtree=1 / bitrate=3700 / ratetol=1.0 / qcomp=0.60 / qpmin=0 / qpmax=69 / qpstep=4 / cplxblur=20.0 / qblur=0.5 / ip_ratio=1.40 / aq=1:1.00
Default : Yes
Forced : No
Audio
ID : 2
Format : AC-3
Format/Info : Audio Coding 3
Mode extension : CM (complete main)
Format settings, Endianness : Big
Codec ID : A_AC3
Duration : 1h 13mn
Bit rate mode : Constant
Bit rate : 448 Kbps
Channel count : 6 channels
Channel positions : Front: L C R, Side: L R, LFE
Sampling rate : 48.0 KHz
Bit depth : 16 bits
Compression mode : Lossy
Stream size : 236 MiB (11%)
Default : Yes
Forced : No
Релиз от: SuperMin



   Похожие торренты   Торрент   Размер 
В этой теме нет новых непрочитанных сообщений. Барби: Жемчужная Принцесса / Barbie: The Pearl Princess (2014) BDRip | Лицензия

1192 | 147

1.37 ГБ

В этой теме нет новых непрочитанных сообщений. Барби: Жемчужная Принцесса / Barbie: The Pearl Princess (2014) BDRip-AVC от ExKinoRay | Лицензия

144 | 50

2.09 ГБ

В этой теме нет новых непрочитанных сообщений. Барби: Жемчужная Принцесса / Barbie: The Pearl Princess (2014) HDRip от Sanjar & NeoJet | КПК | Лицензия

162 | 11

221.54 МБ

В этой теме нет новых непрочитанных сообщений. Барби: Марипоса и Принцесса-фея / Barbie: Mariposa & The Fairy Princess (2013) BDRip 720 от SuperMin

399 | 98

2.18 ГБ

В этой теме нет новых непрочитанных сообщений. Барби: Супер Принцесса / Barbie in Princess Power (2015) BDRip-AVC | D

970 | 39

1.56 ГБ

В этой теме нет новых непрочитанных сообщений. Барби: Супер Принцесса / Barbie in Princess Power (2015) BDRip 720p

1301 | 65

2.13 ГБ

В этой теме нет новых непрочитанных сообщений. Барби: Принцесса и Нищенка / Barbie as the Princess and the Pauper (2004) DVDRip

465 | 21

1.46 ГБ




Вы не можете начинать темы
Вы не можете отвечать на сообщения
Вы не можете редактировать свои сообщения
Вы не можете удалять свои сообщения
Вы не можете добавлять вложения

Перейти:  
Для Мосгорсуда, Роскомнадзора и рекламодателей: mosgorsud-torrent[собачка]yandex.ru
 Вход
ppkBB3cker v.2 © 2008-2014 @ PPK
[ Time : 0.025s | 17 Queries | GZIP : Off ]

Торрент трекер RUTOR.IN, Не можете зайти на rutor.org? Какой новый адрес рутор? Какое зеркало рутор? Не работает rutor.org и зеркала? Тогда наш торрент специально для вас. Rutor.in неофициальное зеркало rutor. В случае если у Вас заблокирован rutor или вдруг Вы не можете на него зайти, то Вы без труда сможете скачать бесплатно и без рекламы последние новинки кино, игр, сериалов и прочего у нас, на Rutor.in. Не нужно использовать прокси, чтобы зайти на рутор, достаточно воспользоваться нашим ресурсом. Все новые фильмы, игры, сериалы, книги и музыка за 2013 и 2014 годы через торрент бесплатно. Скачивайте фильмы в хорошем качестве, игры для пк, xbox, playstation без регистрации. У нас вы найдете новые Зарубежные сериалы и Русские сериалы 2013, 2014, 2015 годов. Оставайтесь с нами, качайте любимые фильмы, игры, сериалы, книги и музыку.