img image001 image001 image001 image001 image001 image001 image001 image001 image001 image001 image001 image001 image001 image001 image001

Planets Sun Sun Sun
Статистика раздачи
Автор: Nickolas3434 | Размер: 1.59 ГБ | Добавлен: 02 сен 2014
Раздают: 617    Качают: 13
Скачать торрент
Скачать торрент
Описание торрента

СообщениеДобавлено: 02 сен 2014 

Как приручить дракона 2 / How to Train Your Dragon 2 (2014) WEB-DLRip-AVC | iPhone | D iTunes

Название: Как приручить дракона 2
Оригинальное название: How to Train Your Dragon 2
Год выхода: 2014
Жанр: мультфильм, фэнтези, комедия, приключения, семейный
Режиссер: Дин ДеБлуа
В ролях: Джей Барушель, Кейт Бланшетт, Джерард Батлер, Крэйг Фергюсон, Америка Феррера, Джона Хилл, Кристофер Минц-Плассе, ТиДжей Миллер, Кристен Уиг, Джимон Хонсу
О фильме:
С момента примирения викингов и драконов прошло пять лет. Пока Астрид, Сморкала и остальные ребята проводят время, соревнуясь друг с другом в популярных на острове драконьих гонках, Иккинг и Беззубик путешествуют по небу, составляя карту неизвестных мест. Когда одно из их приключений приводит к открытию тайной ледяной пещеры, которая является домом для сотен ранее невиданных диких драконов и таинственного драконьего всадника, два друга оказываются в центре битвы за защиту мира.

Страна: США
Студия: DreamWorks Animation, Mad Hatter Entertainment
Продолжительность: 01:42:13
Перевод: Русский дублированный
Файл
Кодек: H.264
Качество: WEB-DLRip-AVC [480p]
Видео: 640x360@852x360 (2.35:1) at 23.976 fps, AVC at 1800 kbps
Звук:
1: АAС 2.0 170 kbps - Русский дублированный (iTunes)
2: АAС 2.0 160 kbps - Английский
Субтитры: Русский, Украинский, Английский
General
Complete name : C:CREATE264mod1outHow.to.Train.Your.Dragon.2.2014.480p.D.m4v
Format : MPEG-4
Codec ID : M4V
File size : 1.59 GiB
Duration : 1h 50mn
Overall bit rate mode : Variable
Overall bit rate : 2 050 Kbps
Movie name : Как приручить дракона 2
Performer : Dean Deblois
Genre : Animation
ContentType : Short Film
Deion : С момента примирения викингов и драконов прошло пять лет. Пока Астрид, Сморкала и остальные ребята проводят время соревнуясь друг с другом в популярных на острове драконьих гонках, Иккинг и Беззубик путешествуют по небу...
Recorded date : UTC 2014-06-12 08:00:00
Encoded date : UTC 2014-09-01 22:12:22
Tagged date : UTC 2014-09-01 22:17:09
Copyright : © 2014 DreamWorks Animation, L.L.C. All rights reserved.
Cover : Yes
ContentRating : mpaa|PG|200|
Title/Sort : How to Train Your Dragon 2
LongDeion : С момента примирения викингов и драконов прошло пять лет. Пока Астрид, Сморкала и остальные ребята проводят время соревнуясь друг с другом в популярных на острове драконьих гонках, Иккинг и Беззубик путешествуют по небу, составляя карту неизвестных мест. Когда одно из их приключений приводит к открытию тайной ледяной пещеры, которая является домом для сотен ранее невиданных диких драконов и таинственного драконьего всадника, два друга оказываются в центре битвы за защиту мира.
AppleStoreCatalogID : 875611049
Vendor : Apple:vendor_id:2014-512883
Video
ID : 1
Format : AVC
Format/Info : Advanced Video Codec
Format profile : Baseline@L3.0
Format settings, CABAC : No
Format settings, ReFrames : 2 frames
Format settings, GOP : M=1, N=3
Codec ID : avc1
Codec ID/Info : Advanced Video Coding
Duration : 1h 42mn
Bit rate : 1 884 Kbps
Maximum bit rate : 7 419 Kbps
Width : 640 pixels
Height : 360 pixels
Display aspect ratio : 2.35:1
Frame rate mode : Constant
Frame rate : 23.976 fps
Color space : YUV
Chroma subsampling : 4:2:0
Bit depth : 8 bits
Scan type : Progressive
Bits/(Pixel*Frame) : 0.341
Stream size : 1.35 GiB (85%)
Title : How to Train Your Dragon 2 _2014_
Language : English
Encoded date : UTC 2014-09-01 22:12:22
Tagged date : UTC 2014-09-01 22:12:33
Matrix coefficients : BT.709
Audio #1
ID : 2
Format : AAC
Format/Info : Advanced Audio Codec
Format profile : LC
Codec ID : 40
Duration : 1h 41mn
Bit rate mode : Variable
Bit rate : 171 Kbps
Maximum bit rate : 204 Kbps
Channel(s) : 2 channels
Channel positions : Front: L R
Sampling rate : 48.0 KHz
Compression mode : Lossy
Stream size : 125 MiB (8%)
Title : DUB _iTunes_
Language : Russian
Encoded date : UTC 2014-09-01 22:10:34
Tagged date : UTC 2014-09-01 22:12:33
Audio #2
ID : 3
Format : AAC
Format/Info : Advanced Audio Codec
Format profile : LC
Codec ID : 40
Duration : 1h 41mn
Bit rate mode : Variable
Bit rate : 158 Kbps
Maximum bit rate : 237 Kbps
Channel(s) : 2 channels
Channel positions : Front: L R
Sampling rate : 48.0 KHz
Compression mode : Lossy
Stream size : 116 MiB (7%)
Language : English
Encoded date : UTC 2014-09-01 22:12:30
Tagged date : UTC 2014-09-01 22:12:33
Text #1
ID : 4
Format : Timed Text
Muxing mode : sbtl
Codec ID : tx3g
Duration : 1h 50mn
Duration_FirstFrame : 1h 32mn
Bit rate mode : Variable
Bit rate : 0 bps
Stream size : 103 Bytes (0%)
Title : Forced
Language : Russian
Encoded date : UTC 2014-09-01 22:12:33
Tagged date : UTC 2014-09-01 22:12:33
Text #2
ID : 5
Format : Timed Text
Muxing mode : sbtl
Codec ID : tx3g
Duration : 1h 32mn
Bit rate mode : Variable
Bit rate : 84 bps
Stream size : 57.0 KiB (0%)
Language : Russian
Encoded date : UTC 2014-09-01 22:12:33
Tagged date : UTC 2014-09-01 22:12:33
Text #3
ID : 6
Format : Timed Text
Muxing mode : sbtl
Codec ID : tx3g
Duration : 1h 32mn
Bit rate mode : Variable
Bit rate : 86 bps
Stream size : 58.4 KiB (0%)
Language : Ukrainian
Encoded date : UTC 2014-09-01 22:12:33
Tagged date : UTC 2014-09-01 22:12:33
Text #4
ID : 7
Format : Timed Text
Muxing mode : sbtl
Codec ID : tx3g
Duration : 1h 32mn
Bit rate mode : Variable
Bit rate : 55 bps
Stream size : 37.1 KiB (0%)
Language : English
Encoded date : UTC 2014-09-01 22:12:33
Tagged date : UTC 2014-09-01 22:12:33
Sort Name: How to Train Your Dragon 2
XID: Apple:vendor_id:2014-512883
Content ID: 875611049
Copyright: © 2014 DreamWorks Animation, L.L.C. All rights reserved.
ScreenWriters: Дин ДеБлуа, Крессида Коуэлл
Producers: Бонни Арнольд, Майкл А. Коннолли, Даг Дэвисон
Director: Дин ДеБлуа
Cast: Jay Baruchel (Hiccup (voice)), Gerard Butler (Stoick the Vast (voice)), Kristen Wiig (Ruffnut (voice)), Jonah Hill (Snotlout (voice)), Cate Blanchett (Valka (voice)), Djimon Hounsou (Drago Bludvist (voice)), Kit Harington (Eret, Son of Eret (voice)), Christopher Mintz-Plasse (Fishlegs (voice)), T. J. Miller (Tuffnut (voice)), America Ferrera (Astrid (voice)), Craig Ferguson (Gobber (voice))
Rating: PG
Long Deion: С момента примирения викингов и драконов прошло пять лет. Пока Астрид, Сморкала и остальные ребята проводят время соревнуясь друг с другом в популярных на острове драконьих гонках, Иккинг и Беззубик путешествуют по небу, составляя карту неизвестных мест. Когда одно из их приключений приводит к открытию тайной ледяной пещеры, которая является домом для сотен ранее невиданных диких драконов и таинственного драконьего всадника, два друга оказываются в центре битвы за защиту мира.
Deion: С момента примирения викингов и драконов прошло пять лет. Пока Астрид, Сморкала и остальные ребята проводят время соревнуясь друг с другом в популярных на острове драконьих гонках, Иккинг и Беззубик путешествуют по небу...
Release Date: 2014-06-12T08:00:00Z
Genre: Animation
Artist: Dean Deblois
Name: Как приручить дракона 2
x264 [info]: frame I:1431 Avg QP:14.37 size:117447
x264 [info]: frame P:36864 Avg QP:18.38 size: 35647
x264 [info]: frame B:112353 Avg QP:21.54 size: 7842
x264 [info]: consecutive B-frames: 3.0% 4.3% 16.0% 20.9% 18.6% 30.9% 4.0% 0.8% 0.6% 0.4% 0.1% 0.1% 0.1% 0.1% 0.1%
x264 [info]: mb I I16..4: 17.3% 47.2% 35.5%
x264 [info]: mb P I16..4: 0.6% 8.7% 3.2% P16..4: 24.6% 33.6% 18.0% 6.7% 1.7% skip: 2.9%
x264 [info]: mb B I16..4: 0.0% 1.1% 0.5% B16..8: 38.1% 21.5% 3.7% direct: 4.3% skip:30.8% L0:38.0% L1:43.7% BI:18.3%
x264 [info]: 8x8 transform intra:64.6% inter:48.7%
x264 [info]: coded y,uvDC,uvAC intra: 91.2% 75.7% 53.1% inter: 25.4% 18.9% 7.9%
x264 [info]: i16 v,h,dc,p: 8% 7% 34% 51%
x264 [info]: i8 v,h,dc,ddl,ddr,vr,hd,vl,hu: 14% 9% 8% 9% 12% 12% 12% 11% 12%
x264 [info]: i4 v,h,dc,ddl,ddr,vr,hd,vl,hu: 35% 9% 6% 6% 10% 10% 9% 8% 9%
x264 [info]: i8c dc,h,v,p: 34% 28% 23% 16%
x264 [info]: Weighted P-Frames: Y:2.4% UV:1.4%
x264 [info]: ref P L0: 58.1% 11.5% 12.3% 5.6% 3.9% 3.0% 2.4% 1.5% 1.6% 0.2% 0.0%
x264 [info]: ref B L0: 86.1% 6.0% 3.1% 1.7% 1.2% 0.8% 0.8% 0.3%
x264 [info]: ref B L1: 94.4% 5.6%
x264 [info]: kb/s:3008.97




   Похожие торренты   Торрент   Размер 
В этой теме нет новых непрочитанных сообщений. Как приручить дракона 2 / How to Train Your Dragon 2 (2014) WEB-DLRip | iTunes

576 | 44

699.6 МБ

В этой теме нет новых непрочитанных сообщений. Как приручить дракона 2 / How to Train Your Dragon 2 (2014) WEB-DLRip | iTunes

5992 | 239

1.46 ГБ

В этой теме нет новых непрочитанных сообщений. Как приручить дракона 2 / How to Train Your Dragon 2 (2014) WEB-DLRip от Scarabey | D | iTunes

438 | 29

743.63 МБ

В этой теме нет новых непрочитанных сообщений. Как приручить дракона 2 / How to Train Your Dragon 2 (2014) WEB-DLRip от New-Team | iTunes

518 | 170

744.63 МБ

В этой теме нет новых непрочитанных сообщений. Как приручить дракона 2 / How to Train Your Dragon 2 (2014) WEB-DLRip-AVC от ExKinoRay | iTunes

3053 | 115

1.86 ГБ

В этой теме нет новых непрочитанных сообщений. Как приручить дракона 2 / How to Train Your Dragon 2 (2014) WEB-DLRip от Scarabey | D | iTunes

2099 | 340

1.45 ГБ

В этой теме нет новых непрочитанных сообщений. Как приручить дракона 2 / How to Train Your Dragon 2 (2014) WEB-DLRip от New-Team | iTunes

1828 | 325

1.45 ГБ




Вы не можете начинать темы
Вы не можете отвечать на сообщения
Вы не можете редактировать свои сообщения
Вы не можете удалять свои сообщения
Вы не можете добавлять вложения

Перейти:  
Для Мосгорсуда, Роскомнадзора и рекламодателей: mosgorsud-torrent[собачка]yandex.ru
 Вход
ppkBB3cker v.2 © 2008-2014 @ PPK
[ Time : 0.021s | 15 Queries | GZIP : Off ]

Торрент трекер RUTOR.IN, Не можете зайти на rutor.org? Какой новый адрес рутор? Какое зеркало рутор? Не работает rutor.org и зеркала? Тогда наш торрент специально для вас. Rutor.in неофициальное зеркало rutor. В случае если у Вас заблокирован rutor или вдруг Вы не можете на него зайти, то Вы без труда сможете скачать бесплатно и без рекламы последние новинки кино, игр, сериалов и прочего у нас, на Rutor.in. Не нужно использовать прокси, чтобы зайти на рутор, достаточно воспользоваться нашим ресурсом. Все новые фильмы, игры, сериалы, книги и музыка за 2013 и 2014 годы через торрент бесплатно. Скачивайте фильмы в хорошем качестве, игры для пк, xbox, playstation без регистрации. У нас вы найдете новые Зарубежные сериалы и Русские сериалы 2013, 2014, 2015 годов. Оставайтесь с нами, качайте любимые фильмы, игры, сериалы, книги и музыку.