img image001 image001 image001 image001 image001 image001 image001 image001 image001 image001 image001 image001 image001 image001 image001

Planets Sun Sun Sun
Статистика раздачи
Автор: Nickolas3434 | Размер: 2.17 ГБ | Добавлен: 05 сен 2014
Раздают: 533    Качают: 19
Скачать торрент
Скачать торрент
Описание торрента

СообщениеДобавлено: 05 сен 2014 

Информация о фильме
Название: Барби и ее сестры в Сказке о пони
Оригинальное название: Barbie & Her Sisters in A Pony Tale
Год выхода: 2013
Жанр: мультфильм, фэнтези, приключения
Режиссер: Кайран Келли / Kyran Kelly
В ролях: Келли Шеридан, Клер Корлетт, Эшлин Драммонд, Алекс Келли, Табита Сен-Жермен, Шеннон Чан-Кент, Колин Мёрдок, Питер Келамис, Максин Миллер, Коул Ховард, Гейб Хаут, Тео Белл...
О фильме:
Барби и её сестры отправляются в сказочные Швейцарские Альпы, чтобы провести незабываемые летние каникулы в школе верховой езды! Барби с нетерпением ждет встречи с новой лошадкой, которую намеревается забрать с собой в Малибу. Стэйси очень хочется доказать всем, что она великолепная наездница. Малышка Челси мечтает покататься на «настоящих больших лошадках», а Скиппер больше любит красочно описывать приключения, чем участвовать в них. Каникулы идут своим чередом, пока Барби не находит в лесу необычную дикую лошадь - и каникулы сестер становятся по-настоящему волшебными!...

Страна: США
Продолжительность: 01:14:12
Перевод: Дубляж
Файл
Кодек: h264
Качество: BDRip 720 от SuperMin
Видео: 1280x720 (16:9), 3800 kbps, 23.976 fps
Звук: Русский (AC-3, 6ch, 384kbps)

General
Unique ID : 214926174224263775040640097553844507830 (0xA1B14685AAF941D081886B9B7B7F94B6)
Complete name : H:МУЛЬТЫБАРБИБАРБИ И ЕЁ СЁСТРЫ В СКАЗКЕ О ПОНИ.mkv
Format : Matroska
Format version : Version 4 / Version 2
File size : 2.17 GiB
Duration : 1h 14mn
Overall bit rate : 4 186 Kbps
Encoded date : UTC 2014-09-04 06:27:26
Writing application : mkvmerge v6.9.1 ('Blue Panther') 64bit built on Apr 18 2014 18:23:38
Writing library : libebml v1.3.0 + libmatroska v1.4.1
DURATION : 01:14:11.456000000
NUMBER_OF_FRAMES : 139108
NUMBER_OF_BYTES : 213669888
_STATISTICS_WRITING_APP : mkvmerge v7.1.0 ('Good Love') 64bit built on Jul 27 2014 13:06:55
_STATISTICS_WRITING_DATE_UTC : 2014-08-31 10:12:11
_STATISTICS_TAGS : BPS DURATION NUMBER_OF_FRAMES NUMBER_OF_BYTES
Video
ID : 1
Format : AVC
Format/Info : Advanced Video Codec
Format profile : High@L4.1
Format settings, CABAC : Yes
Format settings, ReFrames : 9 frames
Codec ID : V_MPEG4/ISO/AVC
Duration : 1h 14mn
Bit rate : 3 800 Kbps
Width : 1 280 pixels
Height : 720 pixels
Display aspect ratio : 16:9
Frame rate mode : Constant
Frame rate : 23.976 fps
Color space : YUV
Chroma subsampling : 4:2:0
Bit depth : 8 bits
Scan type : Progressive
Bits/(Pixel*Frame) : 0.172
Stream size : 1.93 GiB (89%)
Writing library : x264 core 142 r2409kMod d6b4e63
Encoding settings : cabac=1 / ref=9 / deblock=1:0:0 / analyse=0x3:0x133 / me=umh / subme=10 / psy=1 / fade_compensate=0.00 / psy_rd=1.00:0.00 / mixed_ref=1 / me_range=32 / chroma_me=1 / trellis=2 / 8x8dct=1 / cqm=0 / deadzone=21,11 / fast_pskip=0 / chroma_qp_offset=-2 / threads=3 / lookahead_threads=1 / sliced_threads=0 / nr=0 / decimate=1 / interlaced=0 / bluray_compat=0 / constrained_intra=0 / fgo=0 / bframes=5 / b_pyramid=2 / b_adapt=1 / b_bias=0 / direct=3 / weightb=1 / open_gop=0 / weightp=2 / keyint=250 / keyint_min=25 / scenecut=40 / intra_refresh=0 / rc_lookahead=60 / rc=2pass / mbtree=1 / bitrate=3800 / ratetol=1.0 / qcomp=0.60 / qpmin=0 / qpmax=69 / qpstep=4 / cplxblur=20.0 / qblur=0.5 / ip_ratio=1.40 / aq=1:1.00
Default : Yes
Forced : No
Audio
ID : 2
Format : AC-3
Format/Info : Audio Coding 3
Mode extension : CM (complete main)
Format settings, Endianness : Big
Codec ID : A_AC3
Duration : 1h 14mn
Bit rate mode : Constant
Bit rate : 384 Kbps
Channel count : 6 channels
Channel positions : Front: L C R, Side: L R, LFE
Sampling rate : 48.0 KHz
Bit depth : 16 bits
Compression mode : Lossy
Stream size : 204 MiB (9%)
Title : AC3, 6 ch, 48 kHz, 384 kbps - Дубляж
Language : Russian
Default : Yes
Forced : No
Menu
00:00:00.000 : en:1. Alpine Arrival
00:05:46.554 : en:2. The Horses Pick You
00:12:19.280 : en:3. Horsing Around
00:17:18.162 : en:4. An Ancient Herd
00:24:30.552 : en:5. Majesty
00:34:46.209 : en:6. You're The One
00:37:50.893 : en:7. Don't Give Up!
00:41:52.551 : en:8. Cross-Country Trials
00:50:35.198 : en:9. The Gala
00:55:04.926 : en:10. The Search Is On!
01:00:18.406 : en:11. The Steeplechase
01:05:11.824 : en:12. Victory For Alpine
Релиз от: SuperMin



   Похожие торренты   Торрент   Размер 
В этой теме нет новых непрочитанных сообщений. Барби и ее сестры в Сказке о пони / Barbie & Her Sisters in A Pony Tale (2013) HDRip | D | iTunes

337 | 15

1.03 ГБ

В этой теме нет новых непрочитанных сообщений. Барби и её сестры в погоне за щенками / Barbie & Her Sisters in a Puppy Chase (2016) BDRip 720p | iTunes

52 | 0

3.48 ГБ

В этой теме нет новых непрочитанных сообщений. Барби и её сестры в погоне за щенками / Barbie & Her Sisters in a Puppy Chase (2016) HDRip | iTunes

395 | 0

1.37 ГБ

В этой теме нет новых непрочитанных сообщений. Барби: Марипоса и Принцесса-фея / Barbie: Mariposa & The Fairy Princess (2013) BDRip 720 от SuperMin

399 | 98

2.18 ГБ

В этой теме нет новых непрочитанных сообщений. Барби: Жемчужная Принцесса / Barbie: The Pearl Princess (2014) BDRip 720 от SuperMin

305 | 32

2.13 ГБ

В этой теме нет новых непрочитанных сообщений. Барби и потайная дверь / Barbie and The Secret Door (2014) BDRip 720 от SuperMin

350 | 27

2.21 ГБ

В этой теме нет новых непрочитанных сообщений. Барби и щенки в поисках сокровищ / Barbie & Her Sisters in the Great Puppy Adventure (2015) DVD9 | лицензия

83 | 6

5.3 ГБ




Вы не можете начинать темы
Вы не можете отвечать на сообщения
Вы не можете редактировать свои сообщения
Вы не можете удалять свои сообщения
Вы не можете добавлять вложения

Перейти:  
Для Мосгорсуда, Роскомнадзора и рекламодателей: mosgorsud-torrent[собачка]yandex.ru
 Вход
ppkBB3cker v.2 © 2008-2014 @ PPK
[ Time : 0.066s | 16 Queries | GZIP : Off ]

Торрент трекер RUTOR.IN, Не можете зайти на rutor.org? Какой новый адрес рутор? Какое зеркало рутор? Не работает rutor.org и зеркала? Тогда наш торрент специально для вас. Rutor.in неофициальное зеркало rutor. В случае если у Вас заблокирован rutor или вдруг Вы не можете на него зайти, то Вы без труда сможете скачать бесплатно и без рекламы последние новинки кино, игр, сериалов и прочего у нас, на Rutor.in. Не нужно использовать прокси, чтобы зайти на рутор, достаточно воспользоваться нашим ресурсом. Все новые фильмы, игры, сериалы, книги и музыка за 2013 и 2014 годы через торрент бесплатно. Скачивайте фильмы в хорошем качестве, игры для пк, xbox, playstation без регистрации. У нас вы найдете новые Зарубежные сериалы и Русские сериалы 2013, 2014, 2015 годов. Оставайтесь с нами, качайте любимые фильмы, игры, сериалы, книги и музыку.
cron