img image001 image001 image001 image001 image001 image001 image001 image001 image001 image001 image001 image001 image001 image001 image001

Planets Sun Sun Sun
Статистика раздачи
Автор: Nickolas3434 | Размер: 1.99 ГБ | Добавлен: 07 сен 2014
Раздают: 521    Качают: 28
Скачать торрент
Скачать торрент
Описание торрента

СообщениеДобавлено: 07 сен 2014 

Информация о фильме
Название: Бэтмен: Нападение на Аркхэм
Оригинальное название: Batman: Assault on Arkham
Год выхода: 2014
Жанр: мультфильм, боевик, триллер, криминал
Режиссер: Джей Олива, Этан Сполдинг
В ролях: Кевин Конрой, Нил МакДонаф, Хинден Уолш, Мэттью Грей Гублер, Трой Бэйкер, Эрик Бауза, Крис Кокс, Джон Ди Маджио, Джанкарло Эспозито, Дженнифер Хейл
О фильме: Секретная правительственная организация формирует спец группу «Суицидальный отряд», состоящую из наемников и убийц, чтобы проникнуть в психиатрическую лечебницу Аркхам и добыть похищенную, засекреченную информацию, из рук заключенного — Эдварда Нигмы «Загадочника».
Продолжительность: 01:15:56
Перевод: Любительский (двухголосый)
Роли озвучивали: Тимиркан Сиюхов и Маргарита Щелкунова
Субтитры: отсутствуют
Категория: 18+
Файл
Формат: MKV
Качество: BDRip 720p
Видео: 1280 x 720 (16:9), 23.976 fps, AVC (x264), High@L3.1, 2391 kbps avg, 0.108 bit/pixel
Аудио# 1 Русский: 48 kHz, AC3 Dolby Digital, 3/2 (L,C,R,l,r) + LFE ch, 640 kbps| Любительский (двухголосый) |
Аудио# 2 Английский: 48 kHz, AC3 Dolby Digital, 3/2 (L,C,R,l,r) + LFE ch, 640 kbps | Оригинал |
Релиз от: | Перевод на русский: Dakota Family Translators | BDRip: LE-Production | Семпл
Общее
Полное имя : Batman.Assault.on.Arkham.2014.720.BDRip.DD5.1.le-production.mkv
Формат : Matroska
Размер файла : 1,99 Гбайт
Продолжительность : 1 ч. 15 м.
Общий поток : 3745 Кбит/сек
Название фильма : le-production
Дата кодирования : UTC 2014-08-27 13:18:26
Программа кодирования : mkvmerge v7.1.0 ('Good Love') 64bit built on Jul 27 2014 13:06:55
Библиотека кодирования : libebml v1.3.0 + libmatroska v1.4.1
Видео
Идентификатор : 1
Формат : AVC
Формат/Информация : Advanced Video Codec
Профиль формата : High@L3.1
Параметр CABAC формата : Да
Параметр ReFrames формата : 4 кадры
Идентификатор кодека : V_MPEG4/ISO/AVC
Продолжительность : 1 ч. 15 м.
Битрейт : 2391 Кбит/сек
Ширина : 1280 пикс.
Высота : 720 пикс.
Соотношение сторон : 16:9
Частота кадров : 23,976 кадр/сек
Цветовое пространство : YUV
Подвыборка цветности : 4:2:0
Битовая глубина : 8 бит
Тип развёртки : Прогрессивная
Бит/(Пиксели*Кадры) : 0.108
Размер потока : 1,27 Гбайт (64%)
Заголовок : le-production
Библиотека кодирования : x264 core 130 r2273 b3065e6
Настройки программы : cabac=1 / ref=1 / deblock=1:-1:-1 / analyse=0x3:0x113 / me=hex / subme=2 / psy=1 / psy_rd=1.00:0.10 / mixed_ref=0 / me_range=16 / chroma_me=1 / trellis=0 / 8x8dct=1 / cqm=0 / deadzone=21,11 / fast_pskip=1 / chroma_qp_offset=0 / threads=12 / lookahead_threads=4 / sliced_threads=0 / nr=0 / decimate=1 / interlaced=0 / bluray_compat=0 / constrained_intra=0 / bframes=3 / b_pyramid=2 / b_adapt=1 / b_bias=0 / direct=1 / weightb=1 / open_gop=0 / weightp=1 / keyint=250 / keyint_min=23 / scenecut=40 / intra_refresh=0 / rc_lookahead=10 / rc=crf / mbtree=1 / crf=15.0 / qcomp=0.60 / qpmin=0 / qpmax=69 / qpstep=4 / ip_ratio=1.40 / aq=1:1.00
Язык : Russian
Аудио #1
Идентификатор : 2
Формат : AC-3
Формат/Информация : Audio Coding 3
Расширение режима : CM (complete main)
Идентификатор кодека : A_AC3
Продолжительность : 1 ч. 15 м.
Вид битрейта : Постоянный
Битрейт : 640 Кбит/сек
Канал(ы) : 6 канала(ов)
Расположение каналов : Front: L C R, Side: L R, LFE
Частота : 48,0 КГц
Битовая глубина : 16 бит
Метод сжатия : С потерями
Размер потока : 348 Мбайт (17%)
Заголовок : le-production (Тимиркан Сиюхов и Маргарита Щелкунова)
Язык : Russian
Аудио #2
Идентификатор : 3
Формат : AC-3
Формат/Информация : Audio Coding 3
Расширение режима : CM (complete main)
Идентификатор кодека : A_AC3
Продолжительность : 1 ч. 15 м.
Вид битрейта : Постоянный
Битрейт : 640 Кбит/сек
Канал(ы) : 6 канала(ов)
Расположение каналов : Front: L C R, Side: L R, LFE
Частота : 48,0 КГц
Битовая глубина : 16 бит
Метод сжатия : С потерями
Размер потока : 348 Мбайт (17%)
Язык : English





   Похожие торренты   Торрент   Размер 
В этой теме нет новых непрочитанных сообщений. Бэтмен: Нападение на Аркхэм / Batman: Assault on Arkham (2014) BDRip 720p | L

512 | 99

4.32 ГБ

В этой теме нет новых непрочитанных сообщений. Бэтмен: Нападение на Аркхэм / Batman: Assault on Arkham (2014) BDRip 720p | Чистый звук, L

554 | 50

4.49 ГБ

В этой теме нет новых непрочитанных сообщений. Бэтмен: Нападение на Аркхэм / Batman: Assault on Arkham (2014) BDRip 720p от Leonardo and Scarabey | Студия Saint Sound

201 | 23

1.35 ГБ

В этой теме нет новых непрочитанных сообщений. Бэтмен: Нападение на Аркхэм / Batman: Assault on Arkham (2014) HDRip | L

2289 | 128

1.37 ГБ

В этой теме нет новых непрочитанных сообщений. Бэтмен: Нападение на Аркхэм / Batman: Assault on Arkham (2014) HDRip-AVC от АРХАНГЕЛ | L

167 | 41

2.07 ГБ

В этой теме нет новых непрочитанных сообщений. Бэтмен: Дурная кровь / Batman: Bad Blood (2016) BDRip 720p | LE-Production

1613 | 51

2.17 ГБ

В этой теме нет новых непрочитанных сообщений. OST - Batman: Arkham Knight (Бэтмен: Рыцарь Аркхема) (2015) MP3

93 | 98

136.14 МБ




Вы не можете начинать темы
Вы не можете отвечать на сообщения
Вы не можете редактировать свои сообщения
Вы не можете удалять свои сообщения
Вы не можете добавлять вложения

Перейти:  
Для Мосгорсуда, Роскомнадзора и рекламодателей: mosgorsud-torrent[собачка]yandex.ru
 Вход
ppkBB3cker v.2 © 2008-2014 @ PPK
[ Time : 3.188s | 16 Queries | GZIP : Off ]

cron