img image001 image001 image001 image001 image001 image001 image001 image001 image001 image001 image001 image001 image001 image001 image001

Planets Sun Sun Sun
Статистика раздачи
Автор: Nickolas3434 | Размер: 16.78 ГБ | Добавлен: 07 сен 2014
Раздают: 33    Качают: 13
Скачать торрент
Скачать торрент
Описание торрента

СообщениеДобавлено: 07 сен 2014 

«Всё будет хорошо»



Страна: ЮАР / Triggerfish Animation
Жанр: мультфильм, приключения, семейный, комедия
Год выпуска: 2013
Продолжительность: 01:25:18
Перевод: Профессиональный (дублированный) + дублированный (пиратский) + любительский одноголосый (VANO)
Cубтитры: английский
Оригинальная аудиодорожка: английский
Режиссер: Энтони Силверстон / Anthony Silverston
В ролях: Джейк Т. Остин, Стив Бушеми, Лоретта Дивайн, Лоренс Фишбёрн, Ричард Э. Грант, Аника Нони Роуз, Анна-София Робб, Кэтрин Тейт, Лиам Нисон, Чарльз Адлер...
Роли дублировали: Оскар Кучера
Описание: Зебра Кумба с самого рождения был посмешищем всего стада из-за того, что родился наполовину полосатым, а наполовину белым. Хуже того, когда началась Великая Засуха, сородичи решили, что он проклят, и в нем причина всех бед. Стадо изгнало Кумбу, и даже отец отвернулся от него! Отважная полуполосатая зебра отправляется в опасные и веселые приключения, чтобы найти недостающие полоски и заслужить уважение семьи…

Качество: BDRemux 1080p / DVD5 R5 - лицензионный диск от от CD Land + KHUMBA_3D_NNMCLUB.iso
Формат: MKV
Видео: 1920x1080 (16:9), MPEG-4 AVC ~24590 kbps, 23.976 fps, 0.485 bit/pix
Аудио 1: AC3 5.1, 448 kbps, 48 kHz [Русский - дублированный]
Аудио 2: AC3 5.1, 448 kbps, 48 kHz [Русский - дублированный (пиратский)]
Аудио 3: AC3 5.1, 384 kbps, 48 kHz [Русский - одноголосый (VANO)]
Аудио 4: DTS-HD MA 5.1, 2279 kbps, 48 kHz [Английский - оригинал]
Формат субтитров: SoftSub (srt)
Дополнительно: Фильм разбит на главы, как на оригинальном Blu-ray диске.
Раздача от:
Общее
Полное имя : Korol.safari.2013.D.BDRemux.1080p.mkv
Формат : Matroska
Версия формата : Version 4 / Version 2
Размер файла : 16,8 Гбайт
Продолжительность : 1 ч. 25 м.
Режим общего битрейта : Переменный
Общий поток : 28,2 Мбит/сек
Дата кодирования : UTC 2014-09-06 05:04:06
Программа кодирования : mkvmerge v7.1.0 ('Good Love') 64bit built on Jul 27 2014 13:06:55
Библиотека кодирования : libebml v1.3.0 + libmatroska v1.4.1
DURATION : 01:17:29.228000000
NUMBER_OF_FRAMES : 1201
NUMBER_OF_BYTES : 32945
_STATISTICS_WRITING_APP : mkvmerge v7.1.0 ('Good Love') 64bit built on Jul 27 2014 13:06:55
_STATISTICS_WRITING_DATE_UTC : 2014-09-06 05:04:06
_STATISTICS_TAGS : BPS DURATION NUMBER_OF_FRAMES NUMBER_OF_BYTES
Видео
Идентификатор : 1
Формат : AVC
Формат/Информация : Advanced Video Codec
Профиль формата : High@L4.1
Параметр CABAC формата : Да
Параметр ReFrames формата : 3 кадра
Идентификатор кодека : V_MPEG4/ISO/AVC
Продолжительность : 1 ч. 25 м.
Вид битрейта : Переменный
Максимальный битрейт : 31,0 Мбит/сек
Ширина : 1920 пикселей
Высота : 1080 пикселей
Соотношение сторон : 16:9
Режим частоты кадров : Постоянный
Частота кадров : 23,976 кадра/сек
Цветовое пространство : YUV
Субдискретизация насыщенности : 4:2:0
Битовая глубина : 8 бит
Тип развёртки : Прогрессивная
Язык : English
Default : Да
Forced : Нет
Аудио #1
Идентификатор : 2
Формат : AC-3
Формат/Информация : Audio Coding 3
Расширение режима : CM (complete main)
Параметр Endianness формата : Big
Идентификатор кодека : A_AC3
Продолжительность : 1 ч. 25 м.
Вид битрейта : Постоянный
Битрейт : 448 Кбит/сек
Каналы : 6 каналов
Расположение каналов : Front: L C R, Side: L R, LFE
Частота : 48,0 КГц
Битовая глубина : 16 бит
Метод сжатия : С потерями
Размер потока : 273 Мбайт (2%)
Заголовок : DUB
Язык : Russian
Default : Да
Forced : Нет
Аудио #2
Идентификатор : 3
Формат : AC-3
Формат/Информация : Audio Coding 3
Расширение режима : CM (complete main)
Параметр Endianness формата : Big
Идентификатор кодека : A_AC3
Продолжительность : 1 ч. 25 м.
Вид битрейта : Постоянный
Битрейт : 448 Кбит/сек
Каналы : 6 каналов
Расположение каналов : Front: L C R, Side: L R, LFE
Частота : 48,0 КГц
Битовая глубина : 16 бит
Метод сжатия : С потерями
Размер потока : 273 Мбайт (2%)
Заголовок : DUB-Piratskiy
Язык : Russian
Default : Нет
Forced : Нет
Аудио #3
Идентификатор : 4
Формат : AC-3
Формат/Информация : Audio Coding 3
Расширение режима : CM (complete main)
Параметр Endianness формата : Big
Идентификатор кодека : A_AC3
Продолжительность : 1 ч. 25 м.
Вид битрейта : Постоянный
Битрейт : 384 Кбит/сек
Каналы : 6 каналов
Расположение каналов : Front: L C R, Side: L R, LFE
Частота : 48,0 КГц
Битовая глубина : 16 бит
Метод сжатия : С потерями
Размер потока : 234 Мбайт (1%)
Заголовок : VANO
Язык : Russian
Default : Нет
Forced : Нет
Аудио #4
Идентификатор : 5
Формат : DTS
Формат/Информация : Digital Theater Systems
Профиль формата : MA / Core
Режим : 16
Параметр Endianness формата : Big
Идентификатор кодека : A_DTS
Продолжительность : 1 ч. 25 м.
Вид битрейта : Переменный
Битрейт : Неизвестно / 1509 Кбит/сек
Каналы : 6 каналов
Расположение каналов : Front: L C R, Side: L R, LFE
Частота : 48,0 КГц
Битовая глубина : 16 бит
Метод сжатия : Без потерь / Lossy
Язык : English
Default : Нет
Forced : Нет
Текст
Идентификатор : 6
Формат : UTF-8
Идентификатор кодека : S_TEXT/UTF8
Идентификатор кодека/Информация : UTF-8 Plain Text
Заголовок : English
Язык : English
Default : Нет
Forced : Нет
Меню
00:00:00.000 : en:00:00:00.000
00:07:02.881 : en:00:07:02.881
00:14:33.623 : en:00:14:33.623
00:24:04.485 : en:00:24:04.485
00:30:51.933 : en:00:30:51.933
00:38:02.489 : en:00:38:02.489
00:45:18.507 : en:00:45:18.507
00:50:56.345 : en:00:50:56.345
00:55:26.865 : en:00:55:26.865
01:00:10.857 : en:01:00:10.857
01:09:02.305 : en:01:09:02.305
01:19:12.790 : en:01:19:12.790





   Похожие торренты   Торрент   Размер 
В этой теме нет новых непрочитанных сообщений. Король сафари / Кумба / Khumba (2013) BDRip 1080p от New-Team | 2xD, L1 | лицензия

195 | 51

6.5 ГБ

В этой теме нет новых непрочитанных сообщений. Король сафари / Кумба / Khumba (2013) BDRip от New-Team | D | лицензия

1208 | 217

1.46 ГБ

В этой теме нет новых непрочитанных сообщений. Король сафари / Кумба / Khumba (2013) DVD5 от New-Team | D | Лицензия

40 | 20

3.57 ГБ

В этой теме нет новых непрочитанных сообщений. Король сафари / Кумба / Khumba (2013) BDRip-AVC от New-Team | D | лицензия

595 | 54

2.18 ГБ

В этой теме нет новых непрочитанных сообщений. Король сафари / Кумба / Khumba (2013) BDRip 720p от New-Team | 2xD, L1 | лицензия

188 | 30

4.18 ГБ

В этой теме нет новых непрочитанных сообщений. Король сафари / Кумба / Khumba (2013) BDRip 1080p от Ash61 | 3D-Video | halfOU | Лицензия

414 | 55

4.16 ГБ

В этой теме нет новых непрочитанных сообщений. Король сафари / Кумба / Khumba (2013) BDRip от HQCLUB | Лицензия

146 | 14

1.45 ГБ




Вы не можете начинать темы
Вы не можете отвечать на сообщения
Вы не можете редактировать свои сообщения
Вы не можете удалять свои сообщения
Вы не можете добавлять вложения

Перейти:  
Для Мосгорсуда, Роскомнадзора и рекламодателей: mosgorsud-torrent[собачка]yandex.ru
 Вход
ppkBB3cker v.2 © 2008-2014 @ PPK
[ Time : 0.039s | 16 Queries | GZIP : Off ]

Торрент трекер RUTOR.IN, Не можете зайти на rutor.org? Какой новый адрес рутор? Какое зеркало рутор? Не работает rutor.org и зеркала? Тогда наш торрент специально для вас. Rutor.in неофициальное зеркало rutor. В случае если у Вас заблокирован rutor или вдруг Вы не можете на него зайти, то Вы без труда сможете скачать бесплатно и без рекламы последние новинки кино, игр, сериалов и прочего у нас, на Rutor.in. Не нужно использовать прокси, чтобы зайти на рутор, достаточно воспользоваться нашим ресурсом. Все новые фильмы, игры, сериалы, книги и музыка за 2013 и 2014 годы через торрент бесплатно. Скачивайте фильмы в хорошем качестве, игры для пк, xbox, playstation без регистрации. У нас вы найдете новые Зарубежные сериалы и Русские сериалы 2013, 2014, 2015 годов. Оставайтесь с нами, качайте любимые фильмы, игры, сериалы, книги и музыку.
cron