img image001 image001 image001 image001 image001 image001 image001 image001 image001 image001 image001 image001 image001 image001 image001

Planets Sun Sun Sun
Статистика раздачи
Автор: Nickolas3434 | Размер: 1.72 ГБ | Добавлен: 17 сен 2014
Раздают: 399    Качают: 24
Скачать торрент
Скачать торрент
Описание торрента

СообщениеДобавлено: 17 сен 2014 

Информация о фильме
Название: Новые приключения Золушки
Оригинальное название: Happily N'Ever After
Год выхода: 2006
Жанр: Мультфильм, фэнтези, комедия, семейный
Режиссер: Пол Дж. Болджер, Ивет Каплан
В ролях: Джордж Карлин, Джон Ди Маджио, Энди Дик, Сара Мишель Геллар, Лиза Каплан, Джилл Тэлли, Том Кенни, Тресс МакНилл, Майкл МакШейн, Роб Полсен

О фильме:
Сохранять равновесие между Добром и Злом в Волшебной стране сказок оказывается не так уж и просто. Главный Волшебник, повелитель всех сказок и ответственный за счастливый конец каждой из них, решил взять небольшой «тайм-аут» — укатить отдохнуть и поиграть в гольф в Шотландию. Вместо себя он оставляет двух своих помощников — Манка и Мамбо, следить за тем, чтобы все сказки шли своим чередом и заканчивались счастливо. Золушка, типичная сказочная героиня, дружит с дворцовым посудомойщиком Риком, питающим к ней самые тёплые чувства, но всё равно мечтает танцевать на балу в этот вечер только с Принцем.



Страна: США, Германия, Lionsgate, Vanguard Films, Odyssey Entertainment
Продолжительность: 01:27:05
Перевод: Дублированный
Дата релиза: 09.09.2014

Файл
Кодек: H.264
Качество: HDRip (AVC)
Видео: MPEG-4 AVC, 2376 Кбит/с, 1024x576
Звук: Русский (AC3, 6 ch, 448 Кбит/с)

Общее
Уникальный идентификатор : 205105282884226569131814816783473805903 (0x9A4DD731F2548E6992C6115463C78A4F)
Полное имя : D:фильмыNovie.priklucheniya.zolushki.2006.x264.HDRip.(AVC).ExKinoRay.mkv
Формат : Matroska
Размер файла : 1,72 Гбайт
Продолжительность : 1 ч. 27 м.
Общий поток : 2825 Кбит/сек
Название фильма : Novie.priklucheniya.zolushki.2007.x264.HDRip.(AVC).ExKinoRay
Дата кодирования : UTC 2014-09-09 15:59:56
Программа кодирования : mkvmerge v4.0.0 ('The Stars were mine') сборка от Jun 6 2010 16:18:42
Библиотека кодирования : libebml v1.0.0 + libmatroska v1.0.0

Видео
Идентификатор : 1
Формат : AVC
Формат/Информация : Advanced Video Codec
Профиль формата : High@L4.1
Параметр CABAC формата : Да
Параметр ReFrames формата : 8 кадров
Идентификатор кодека : V_MPEG4/ISO/AVC
Продолжительность : 1 ч. 27 м.
Битрейт : 2376 Кбит/сек
Ширина : 1024 пикс.
Высота : 576 пикс.
Соотношение сторон : 16:9
Частота кадров : 23,976 кадр/сек
Цветовое пространство : YUV
Подвыборка цветности : 4:2:0
Битовая глубина : 8 бит
Тип развёртки : Прогрессивная
Бит/(Пиксели*Кадры) : 0.168
Размер потока : 1,41 Гбайт (82%)
Заголовок : Rip by Enigma
Библиотека кодирования : x264 core 129 r2245 bc13772
Настройки программы : cabac=1 / ref=8 / deblock=1:-2:-2 / analyse=0x3:0x133 / me=umh / subme=11 / psy=1 / psy_rd=1.00:0.00 / mixed_ref=1 / me_range=48 / chroma_me=1 / trellis=2 / 8x8dct=1 / cqm=0 / deadzone=21,11 / fast_pskip=0 / chroma_qp_offset=-2 / threads=3 / lookahead_threads=1 / sliced_threads=0 / nr=0 / decimate=0 / interlaced=0 / bluray_compat=0 / constrained_intra=0 / bframes=8 / b_pyramid=2 / b_adapt=2 / b_bias=0 / direct=3 / weightb=1 / open_gop=0 / weightp=2 / keyint=240 / keyint_min=23 / scenecut=40 / intra_refresh=0 / rc=2pass / mbtree=0 / bitrate=2376 / ratetol=1.0 / qcomp=0.60 / qpmin=10 / qpmax=51 / qpstep=4 / cplxblur=20.0 / qblur=0.5 / ip_ratio=1.40 / pb_ratio=1.30 / aq=2:1.00
Язык : English

Аудио
Идентификатор : 2
Формат : AC-3
Формат/Информация : Audio Coding 3
Расширение режима : CM (complete main)
Идентификатор кодека : A_AC3
Продолжительность : 1 ч. 27 м.
Вид битрейта : Постоянный
Битрейт : 448 Кбит/сек
Каналы : 6 каналов
Расположение каналов : Front: L C R, Side: L R, LFE
Частота : 48,0 КГц
Битовая глубина : 16 бит
Метод сжатия : С потерями
Размер потока : 279 Мбайт (16%)
Язык : Russian

Меню
00:00:00.000 : en:Chapter 01
00:05:45.762 : en:Chapter 02
00:11:44.829 : en:Chapter 03
00:16:32.032 : en:Chapter 04
00:22:34.936 : en:Chapter 05
00:26:40.348 : en:Chapter 06
00:32:29.489 : en:Chapter 07
00:38:45.865 : en:Chapter 08
00:43:36.572 : en:Chapter 09
00:50:26.440 : en:Chapter 10
00:57:27.026 : en:Chapter 11
01:04:23.359 : en:Chapter 12
01:08:45.996 : en:Chapter 13
01:10:20.299 : en:Chapter 14
01:13:22.940 : en:Chapter 15
01:15:47.668 : en:Chapter 16
01:27:04.969 : en:Chapter 17



Релиз от:

Автор релиза:



   Похожие торренты   Торрент   Размер 
В этой теме нет новых непрочитанных сообщений. Новые приключения Золушки / Happily N'Ever After (2006) HDTV 720p от PskovLine

4 | 3

4.61 ГБ

В этой теме нет новых непрочитанных сообщений. Новые приключения Золушки / Happily N'Ever After (2007) BDRip от HQ-ViDEO

49 | 6

1.46 ГБ

В этой теме нет новых непрочитанных сообщений. Новые приключения Белоснежки / Happily Ever After (1990) DVD5 от Youtracker | P

0 | 1

3.98 ГБ

В этой теме нет новых непрочитанных сообщений. Новые приключения Белоснежки / Happily Ever After (1990) DVDRip от Youtracker | P

37 | 2

744.96 МБ

В этой теме нет новых непрочитанных сообщений. Новые приключения Белоснежки / Happily Ever After (1990) DVDRip-AVC от Youtracker | P

4 | 2

744.3 МБ

В этой теме нет новых непрочитанных сообщений. Новые приключения Аленушки и Еремы (2009) BDRip-AVC от ExKinoRay

182 | 28

1.28 ГБ

В этой теме нет новых непрочитанных сообщений. Новые приключения Аленушки и Еремы (2009) BDRip от ExKinoRay

16 | 7

1.09 ГБ




Вы не можете начинать темы
Вы не можете отвечать на сообщения
Вы не можете редактировать свои сообщения
Вы не можете удалять свои сообщения
Вы не можете добавлять вложения

Перейти:  
Для Мосгорсуда, Роскомнадзора и рекламодателей: mosgorsud-torrent[собачка]yandex.ru
 Вход
ppkBB3cker v.2 © 2008-2014 @ PPK
[ Time : 0.052s | 15 Queries | GZIP : Off ]

Торрент трекер RUTOR.IN, Не можете зайти на rutor.org? Какой новый адрес рутор? Какое зеркало рутор? Не работает rutor.org и зеркала? Тогда наш торрент специально для вас. Rutor.in неофициальное зеркало rutor. В случае если у Вас заблокирован rutor или вдруг Вы не можете на него зайти, то Вы без труда сможете скачать бесплатно и без рекламы последние новинки кино, игр, сериалов и прочего у нас, на Rutor.in. Не нужно использовать прокси, чтобы зайти на рутор, достаточно воспользоваться нашим ресурсом. Все новые фильмы, игры, сериалы, книги и музыка за 2013 и 2014 годы через торрент бесплатно. Скачивайте фильмы в хорошем качестве, игры для пк, xbox, playstation без регистрации. У нас вы найдете новые Зарубежные сериалы и Русские сериалы 2013, 2014, 2015 годов. Оставайтесь с нами, качайте любимые фильмы, игры, сериалы, книги и музыку.