img image001 image001 image001 image001 image001 image001 image001 image001 image001 image001 image001 image001 image001 image001 image001

Planets Sun Sun Sun
Статистика раздачи
Автор: Nickolas3434 | Размер: 5.03 ГБ | Добавлен: 17 сен 2014
Раздают: 77    Качают: 6
Скачать торрент
Скачать торрент
Описание торрента

СообщениеДобавлено: 17 сен 2014 


«It's big for a reason.»

#77

Название: Мегамозг
Оригинальное название: Megamind
Год выпуска: 2010
Жанр: Комедия, семейный, мультфильм, полнометражный, супергерой
Выпущено: DreamWorks Animation
Продолжительность: 01:35:35
Перевод: Дублированный, профессиональный многоголосый, авторский
Субтитры: Русские, английские

Режиссер: Том МакГрат

В ролях: Уилл Феррелл, Брэд Питт, Тина Фей, Джона Хилл, Дэвид Кросс, Джастин Теру, Бен Стиллер, Джессика Шульте, Том МакГрат, Эмили Нордвинд

О фильме:
Мегамозг — самый гениальный и самый неудачливый злодей в мире. Вот уже много лет он пытается покорить Метро-Сити самыми разнообразными способами. Но каждая такая попытка кончается провалом по вине супергероя по имени Метро-Мэн. Но злодей убивает супергероя, и внезапно Мегамозг лишается цели в жизни. Суперзлодей без супергероя. Единственный выход — создать нового супергероя, которого он называет Титаном. Но Титан решает, что быть злодеем куда интереснее. Вот только ему не хочется править миром, он желает его уничтожить. Мегамозгу предстоит непростой выбор. Сможет ли злой гений стать героем — спасителем человечества.



Качество: BDRip (720p)
Видео: МPEG-4 AVC, 4909 Кбит/с, 1280x544
Аудио 1: AC3 Dolby Digital, 48 KHz, 640 kb/s, 3.2 (L,C,R,l,r) + LFE ch - Дубляж
Аудио 2: AC3 Dolby Digital, 48 KHz, 640 kb/s, 3.2 (L,C,R,l,r) + LFE ch - Профессиональный (многоголосый, закадровый) BBC (Санкт-Петербург)
Аудио 3: AC3 Dolby Digital, 48 KHz, 448 kb/s, 3.2 (L,C,R,l,r) + LFE ch - Гаврилов
Аудио 4: AC3 Dolby Digital, 48 KHz, 448 kb/s, 3.2 (L,C,R,l,r) + LFE ch - Сербин
Аудио 5: AC3 Dolby Digital, 48 KHz, 448 kb/s, 3.2 (L,C,R,l,r) + LFE ch - Оригинал

Format : Matroska
Format version : Version 2
File size : 5.03 GiB
Duration : 1h 35mn
Overall bit rate : 7 535 Kbps
Encoded date : UTC 2014-09-08 15:14:58
Writing application : mkvmerge v4.7.0 ('Just Like You Imagined') сборка от Apr 21 2011 01:13:14
Writing library : libebml v1.2.0 + libmatroska v1.1.0
Video
ID : 1
Format : AVC
Format/Info : Advanced Video Codec
Format profile : High@L4.1
Format settings, CABAC : Yes
Format settings, ReFrames : 11 frames
Codec ID : V_MPEG4/ISO/AVC
Duration : 1h 35mn
Bit rate : 4 909 Kbps
Width : 1 280 pixels
Height : 544 pixels
Display aspect ratio : 2.35:1
Frame rate mode : Constant
Frame rate : 23.976 fps
Color space : YUV
Chroma subsampling : 4:2:0
Bit depth : 8 bits
Scan type : Progressive
Bits/(Pixel*Frame) : 0.294
Stream size : 3.18 GiB (63%)
Writing library : x264 core 114 r1913 5fd3dce
Encoding settings : cabac=1 / ref=11 / deblock=1:-3:-3 / analyse=0x3:0x113 / me=tesa / subme=10 / psy=1 / psy_rd=0.60:0.00 / mixed_ref=1 / me_range=16 / chroma_me=1 / trellis=2 / 8x8dct=1 / cqm=0 / deadzone=21,11 / fast_pskip=0 / chroma_qp_offset=-2 / threads=12 / sliced_threads=0 / nr=0 / decimate=0 / interlaced=0 / constrained_intra=0 / bframes=6 / b_pyramid=2 / b_adapt=2 / b_bias=0 / direct=3 / weightb=1 / open_gop=0 / weightp=2 / keyint=250 / keyint_min=23 / scenecut=40 / intra_refresh=0 / rc=2pass / mbtree=0 / bitrate=4909 / ratetol=1.0 / qcomp=0.60 / qpmin=0 / qpmax=69 / qpstep=4 / cplxblur=20.0 / qblur=0.5 / ip_ratio=1.40 / pb_ratio=1.30 / aq=1:1.00 / zones=4474,4653,b=2.5/14695,14789,b=2.5/34389,34530,b=2.5/63683,63954,b=2.5/83742,84204,b=2.5/99537,99568,b=2.5/99657,100007,b=2.5/100174,100336,b=2.5/100495,100713,b=2.5/100833,100980,b=2.5/104174,105048,b=2.5/105201,105329,b=2.5/105460,105523,b=2.5/105604,105648,b=2.5/105705,107351,b=2.5
Language : English
Default : Yes
Forced : No
Audio #1
ID : 2
Format : AC-3
Format/Info : Audio Coding 3
Mode extension : CM (complete main)
Format settings, Endianness : Big
Codec ID : A_AC3
Duration : 1h 35mn
Bit rate mode : Constant
Bit rate : 640 Kbps
Channel count : 6 channels
Channel positions : Front: L C R, Side: L R, LFE
Sampling rate : 48.0 KHz
Bit depth : 16 bits
Compression mode : Lossy
Stream size : 438 MiB (8%)
Title : dub (R5)
Language : Russian
Default : Yes
Forced : No
Audio #2
ID : 3
Format : AC-3
Format/Info : Audio Coding 3
Mode extension : CM (complete main)
Format settings, Endianness : Big
Codec ID : A_AC3
Duration : 1h 35mn
Bit rate mode : Constant
Bit rate : 640 Kbps
Channel count : 6 channels
Channel positions : Front: L C R, Side: L R, LFE
Sampling rate : 48.0 KHz
Bit depth : 16 bits
Compression mode : Lossy
Stream size : 438 MiB (8%)
Title : pm (BBC Saint-Petersburg)
Language : Russian
Default : No
Forced : No
Audio #3
ID : 4
Format : AC-3
Format/Info : Audio Coding 3
Mode extension : CM (complete main)
Format settings, Endianness : Big
Codec ID : A_AC3
Duration : 1h 35mn
Bit rate mode : Constant
Bit rate : 448 Kbps
Channel count : 6 channels
Channel positions : Front: L C R, Side: L R, LFE
Sampling rate : 48.0 KHz
Bit depth : 16 bits
Compression mode : Lossy
Stream size : 306 MiB (6%)
Title : A1 (Gavrilov)
Language : Russian
Default : No
Forced : No
Audio #4
ID : 5
Format : AC-3
Format/Info : Audio Coding 3
Mode extension : CM (complete main)
Format settings, Endianness : Big
Codec ID : A_AC3
Duration : 1h 35mn
Bit rate mode : Constant
Bit rate : 448 Kbps
Channel count : 6 channels
Channel positions : Front: L C R, Side: L R, LFE
Sampling rate : 48.0 KHz
Bit depth : 16 bits
Compression mode : Lossy
Stream size : 306 MiB (6%)
Title : A1 (Serbin)
Language : Russian
Default : No
Forced : No
Audio #5
ID : 6
Format : AC-3
Format/Info : Audio Coding 3
Mode extension : CM (complete main)
Format settings, Endianness : Big
Codec ID : A_AC3
Duration : 1h 35mn
Bit rate mode : Constant
Bit rate : 448 Kbps
Channel count : 6 channels
Channel positions : Front: L C R, Side: L R, LFE
Sampling rate : 48.0 KHz
Bit depth : 16 bits
Compression mode : Lossy
Stream size : 306 MiB (6%)
Title : original
Language : English
Default : No
Forced : No
Text #1
ID : 7
Format : UTF-8
Codec ID : S_TEXT/UTF8
Codec ID/Info : UTF-8 Plain Text
Title : Forced
Language : Russian
Default : Yes
Forced : No
Text #2
ID : 8
Format : UTF-8
Codec ID : S_TEXT/UTF8
Codec ID/Info : UTF-8 Plain Text
Language : Russian
Default : No
Forced : No
Text #3
ID : 9
Format : UTF-8
Codec ID : S_TEXT/UTF8
Codec ID/Info : UTF-8 Plain Text
Language : English
Default : No
Forced : No
Menu
00:00:00.000 : en:Chapter 1
00:06:21.673 : en:Chapter 2
00:10:04.437 : en:Chapter 3
00:15:59.292 : en:Chapter 4
00:22:51.537 : en:Chapter 5
00:28:02.556 : en:Chapter 6
00:32:12.139 : en:Chapter 7
00:39:03.758 : en:Chapter 8
00:45:13.753 : en:Chapter 9
00:52:25.059 : en:Chapter 10
00:56:38.020 : en:Chapter 11
01:04:31.576 : en:Chapter 12
01:10:15.795 : en:Chapter 13
01:17:45.286 : en:Chapter 14
01:25:56.735 : en:Chapter 15
Автор gross1978
За перевод Гаврилова все спасибо отправляются AVO-fan



   Похожие торренты   Торрент   Размер 
В этой теме нет новых непрочитанных сообщений. Мегамозг / Megamind (2010) BDRip 720p от FireBit

12 | 4

2.75 ГБ

В этой теме нет новых непрочитанных сообщений. Мегамозг / Megamind (2010) BDRip 720p от HQ-ViDEO

160 | 16

4.13 ГБ

В этой теме нет новых непрочитанных сообщений. Мегамозг / Megamind (2010) BDRip 720p от Filmrus

13 | 3

6.45 ГБ

В этой теме нет новых непрочитанных сообщений. Мегамозг / Megamind (2010) BDRip 720p | 3D-video (Анаглиф)

4 | 2

2.69 ГБ

В этой теме нет новых непрочитанных сообщений. Мегамозг / Megamind (2010) BDRip 720p от Leonardo and Scarabey | D

795 | 23

2.7 ГБ

В этой теме нет новых непрочитанных сообщений. Мегамозг / Megamind (2010) BDRip 720p | BBC Saint-Peterburg

4 | 2

2.6 ГБ

В этой теме нет новых непрочитанных сообщений. Мегамозг / Megamind (2010) BDRip | A

256 | 16

1.46 ГБ




Вы не можете начинать темы
Вы не можете отвечать на сообщения
Вы не можете редактировать свои сообщения
Вы не можете удалять свои сообщения
Вы не можете добавлять вложения

Перейти:  
Для Мосгорсуда, Роскомнадзора и рекламодателей: mosgorsud-torrent[собачка]yandex.ru
 Вход
ppkBB3cker v.2 © 2008-2014 @ PPK
[ Time : 0.036s | 16 Queries | GZIP : Off ]

cron