img image001 image001 image001 image001 image001 image001 image001 image001 image001 image001 image001 image001 image001 image001 image001

Planets Sun Sun Sun
Статистика раздачи
Автор: Nickolas3434 | Размер: 12.4 ГБ | Добавлен: 17 сен 2014
Раздают: 55    Качают: 7
Скачать торрент
Скачать торрент
Описание торрента

СообщениеДобавлено: 17 сен 2014 

Информация о фильме

Название : Повторная загрузка (Компьютерные войны)
Оригинальное название : ReBoot
Год выхода : 1994-1998
Жанр : мультфильм, фантастика, боевик, триллер, комедия, приключения
Режиссеры : Дик Зондаг, Майкл Донован, Стив Болл
В ролях : Кэтлин Барр, Майкл Беняер, Гари Чок, Тони Джей, Шарон Александр, Пол Добсон, Стиви Вэлланс, Майкл Донован, Ширли Миллнер, Скотт МакНил



Описание : Представьте что наш мир — это Сеть компьютерных систем. Представьте, что люди — это данные системы, а Бог — это Юзер, в чьих руках находятся их судьбы.
Сериал переносит человеческую реальность в киберпространство — реальность всех компьютеров и фокусируется на жителях компьютерной системы под названием «Мэйнфрейм».
Здесь есть простой народ, работающий на поддержание стабильности системы, есть хранители — защищающие систему от внутренних и внешних угроз, есть вирусы — вредоносные программы, и есть сеющие хаос Игровые кубы — единственное прямое доказательство существования Юзера для обитателей Сети…
Доп. информация : Видео и оригинальный звук лучшие из тех которые я смог найти в сети. За дубляж БОЛЬШОЕ СПАСИБО - MLP_HistoryKeeper и ◄ReBoot►. Мантаж дубляжа мой, где его не хватало (в исходниках не всегда серии были полностью с дубляжом). В третьем сезоне в предисловии первой серии дубляжа не было, поэтому я взял звук с многоголоски, так же во второй и четвёртой серии в начале предисловия пять секунд взяты с многоголоски. В титрах звук дубляжа есть только в третьем сезоне, в первых двух сезонах звук взят с оригинальной дорожки. Дубляж взят из разных источников, по этому различается по качеству звука, в большинстве серий звук как в первом семпле, в шести и в некоторых сериях врезаны разные по времени отрывки, там звук как во втором семпле. Звук пришлось подгонять под видео, как дубляж, так и многоголоску.
Страна : Канада
Выпущено : Alliance Communications Corporation, BLT Productions, Mainframe Entertainment, ReBoot Productions Inc., YTV, Zondag Entertainment
Продолжительность : ~00:23:41 (серия)
Перевод 1: Профессиональный (полное дублирование) [ ОРТ ]
Перевод 2: Профессиональный (многоголосый, закадровый)

Файл

Формат видео : MKV
Качество : DVDRip

Видео : AVC, 640x480 (4:3), 23.976 fps, ~1406 Kbps
Звук 1: Русский, MP3, 48.0 KHz, 2 ch, ~128 Kbps (Дубляж)
Звук 2: Русский, MP3, 48.0 KHz, 2 ch, ~128 Kbps (Многоголоска)
Звук 3: Английский, MP3, 44.1 KHz, 2 ch, ~256 Kbps
Субтитры : нет











Первый сезон: (1994-1995)

1.01 The Tearing ("Разрыв")
1.02 Racing the Clock ("Наперегонки со временем")
1.03 Quick and the Fed ("Быстрый и сытый")
1.04 Medusa Bug ("Вирус "Медуза")
1.05 In the Belly of the Beast ("Во чреве чудовища")
1.06 The Tiff ("Размолвка")
1.07 The Crimson Binome ("Багряный бином")
1.08 Enzo the Smart ("Умный Энзо")
1.09 Wizards, Warriors and a Word from Our Sponsor ("Волшебники, воины и слово от нашего спонсора")
1.10 The Great Brain Robbery ("Великое ограбление мозга")
1.11 Talent Night ("Ночь талантов")
1.12 Identity Crisis (1) ("Кризис личности, часть первая")
1.13 Identity Crisis (2) ("Кризис личности, часть вторая")

Второй сезон: (1995-1996)

2.01 Infected ("Зараженный")
2.02 High Code ("Главный код")
2.03 When Games Collide ("Когда игры сталкиваются")
2.04 Bad Bob ("Плохой Боб")
2.05 Painted Windows ("Раскрашенные окна")
2.06 AndrAla ("Андреа")
2.07 Nullzilla ("Нульзилла")
2.08 Gigabyte ("Гигабайт")
2.09 Trust No One ("Не доверяй никому")
2.10 Web World Wars ("Сетевые войны")

Третий сезон: (1996-1998)

3.01 (3.1.1) To Mend and Defend ("Восстанавливать и защищать")
3.02 (3.1.2) Between a Raccoon and a Hard Place ("Между енотом и проблемами")
3.03 (3.1.3) Firewall ("Огненная стена")
3.04 (3.1.4) Game Over ("Конец игры")
3.05 (3.2.1) Icons ("Символы")
3.06 (3.2.2) Where No Sprite Has Gone Before ("Там, где спрайты прежде не бывали")
3.07 (3.2.3) Number 7 ("Номер 7")
3.08 (3.2.4) The Episode with No Name ("Эпизод без названия")
3.09 (3.3.1) The Return of the Crimson Binome ("Возвращение Багряного Бинома")
3.10 (3.3.2) The Edge of Beyond ("Край света")
3.11 (3.3.3) Web Riders on the Storm ("Веб-райдеры и шторм")
3.12 (3.3.4) Mousetrap ("Мышеловка")
3.13 (3.4.1) Megaframe ("Мегафрейм")
3.14 (3.4.2) Showdown ("Последняя битва")
3.15 (3.4.3) System Crash ("Падение системы")
3.16 (3.4.4) End Prog ("Конец программы")


General
Unique ID : 202005181787605075231886156397644527579 (0x97F8C8690764E04ABFFA10E4AA26B7DB)
Complete name : E:/Torrent_2/ReBoot [s01-s03] (DVDRip-AVC, RUS [DUB+MVO] ENG) [DarkDream & Stranik 2.0]/Season 1/1.01. The Tearing.mkv
Format : Matroska
Format version : Version 2
File size : 326 MiB
Duration : 23mn 41s
Overall bit rate : 1 920 Kbps
Encoded date : UTC 2014-08-18 09:51:22
Writing application : mkvmerge v5.5.0 ('Healer') built on Apr 6 2012 21:43:24
Writing library : libebml v1.2.3 + libmatroska v1.3.0

Video #1
ID : 1
Format : AVC
Format/Info : Advanced Video Codec
Format profile : High@L3.0
Format settings, CABAC : Yes
Format settings, ReFrames : 5 frames
Codec ID : V_MPEG4/ISO/AVC
Duration : 23mn 41s
Bit rate : 1 406 Kbps
Width : 640 pixels
Height : 480 pixels
Display aspect ratio : 4:3
Frame rate mode : Constant
Frame rate : 23.976 fps
Color space : YUV
Chroma subsampling : 4:2:0
Bit depth : 8 bits
Scan type : Progressive
Bits/(Pixel*Frame) : 0.191
Stream size : 232 MiB (71%)
Title : ENCODED BY DARKDREAM
Writing library : x264 core 115 r1995 c1e60b9
Encoding settings : cabac=1 / ref=5 / deblock=1:1:1 / analyse=0x3:0x133 / me=umh / subme=7 / psy=1 / psy_rd=0.40:0.00 / mixed_ref=1 / me_range=16 / chroma_me=1 / trellis=2 / 8x8dct=1 / cqm=0 / deadzone=21,11 / fast_pskip=0 / chroma_qp_offset=-2 / threads=3 / sliced_threads=0 / nr=0 / decimate=0 / interlaced=0 / bluray_compat=0 / constrained_intra=0 / bframes=3 / b_pyramid=2 / b_adapt=2 / b_bias=0 / direct=3 / weightb=1 / open_gop=0 / weightp=2 / keyint=250 / keyint_min=23 / scenecut=40 / intra_refresh=0 / rc_lookahead=50 / rc=2pass / mbtree=1 / bitrate=1406 / ratetol=1.0 / qcomp=0.60 / qpmin=10 / qpmax=51 / qpstep=4 / cplxblur=20.0 / qblur=0.5 / ip_ratio=1.40 / aq=1:1.00
Default : Yes
Forced : No

Audio #2
ID : 2
Format : MPEG Audio
Format version : Version 1
Format profile : Layer 3
Mode : Joint stereo
Mode extension : MS Stereo
Codec ID : A_MPEG/L3
Codec ID/Hint : MP3
Duration : 23mn 41s
Bit rate mode : Constant
Bit rate : 128 Kbps
Channel(s) : 2 channels
Sampling rate : 48.0 KHz
Compression mode : Lossy
Stream size : 21.7 MiB (7%)
Title : DUB [ORT]
Language : Russian
Default : Yes
Forced : No

Audio #3
ID : 3
Format : MPEG Audio
Format version : Version 1
Format profile : Layer 3
Mode : Joint stereo
Mode extension : MS Stereo
Codec ID : A_MPEG/L3
Codec ID/Hint : MP3
Duration : 23mn 41s
Bit rate mode : Constant
Bit rate : 128 Kbps
Channel(s) : 2 channels
Sampling rate : 48.0 KHz
Compression mode : Lossy
Stream size : 21.7 MiB (7%)
Title : MVO
Writing library : LAME3.98.2
Language : Russian
Default : No
Forced : No

Audio #4
ID : 4
Format : MPEG Audio
Format version : Version 1
Format profile : Layer 3
Mode : Joint stereo
Mode extension : MS Stereo
Codec ID : A_MPEG/L3
Codec ID/Hint : MP3
Duration : 23mn 41s
Bit rate mode : Constant
Bit rate : 256 Kbps
Channel(s) : 2 channels
Sampling rate : 44.1 KHz
Compression mode : Lossy
Delay relative to video : 68ms
Stream size : 43.4 MiB (13%)
Title : Original
Writing library : LAME3.99.5
Language : English
Default : No
Forced : No



ПРИЯТНОГО ВСЕМ ПРОСМОТРА И НОСТАЛЬГИИ






   Похожие торренты   Торрент   Размер 
В этой теме нет новых непрочитанных сообщений. Повторная загрузка / Компьютерные войны / ReBoot [S01-03] (1994-1998) DVDRip

10 | 2

7.34 ГБ

В этой теме нет новых непрочитанных сообщений. OST - Повторная Загрузка / Компьютерные войны / ReBoot (1994-2002) MP3 от Stranik 2.0

2 | 2

55.43 МБ

В этой теме нет новых непрочитанных сообщений. Повторная загрузка / Компьютерные войны / ReBoot [S04] (2001) DVDRip-AVC | L1

28 | 3

2.4 ГБ

В этой теме нет новых непрочитанных сообщений. Повторная загрузка / Компьютерные войны / ReBoot [S04] (2001) DVDRip | L1

4 | 1

2.15 ГБ

В этой теме нет новых непрочитанных сообщений. Перемотка вперёд: Создание Повторной Загрузки / ReBoot. Fast Forward - The Making of Reboot (1995) VHSRip | L1

0 | 2

365.28 МБ

В этой теме нет новых непрочитанных сообщений. Фортуна войны / Fortunes of War (1994) DVDRip | P

101 | 27

1.46 ГБ

В этой теме нет новых непрочитанных сообщений. Various Artists - DJ Hits 1994-1998 [83 СD] (1994-1998) MP3

12 | 6

13.68 ГБ




Вы не можете начинать темы
Вы не можете отвечать на сообщения
Вы не можете редактировать свои сообщения
Вы не можете удалять свои сообщения
Вы не можете добавлять вложения

Перейти:  
Для Мосгорсуда, Роскомнадзора и рекламодателей: mosgorsud-torrent[собачка]yandex.ru
 Вход
ppkBB3cker v.2 © 2008-2014 @ PPK
[ Time : 0.054s | 16 Queries | GZIP : Off ]

Торрент трекер RUTOR.IN, Не можете зайти на rutor.org? Какой новый адрес рутор? Какое зеркало рутор? Не работает rutor.org и зеркала? Тогда наш торрент специально для вас. Rutor.in неофициальное зеркало rutor. В случае если у Вас заблокирован rutor или вдруг Вы не можете на него зайти, то Вы без труда сможете скачать бесплатно и без рекламы последние новинки кино, игр, сериалов и прочего у нас, на Rutor.in. Не нужно использовать прокси, чтобы зайти на рутор, достаточно воспользоваться нашим ресурсом. Все новые фильмы, игры, сериалы, книги и музыка за 2013 и 2014 годы через торрент бесплатно. Скачивайте фильмы в хорошем качестве, игры для пк, xbox, playstation без регистрации. У нас вы найдете новые Зарубежные сериалы и Русские сериалы 2013, 2014, 2015 годов. Оставайтесь с нами, качайте любимые фильмы, игры, сериалы, книги и музыку.
cron