img image001 image001 image001 image001 image001 image001 image001 image001 image001 image001 image001 image001 image001 image001 image001

Planets Sun Sun Sun
Статистика раздачи
Автор: Nickolas3434 | Размер: 1.28 ГБ | Добавлен: 17 сен 2014
Раздают: 100    Качают: 8
Скачать торрент
Скачать торрент
Описание торрента

СообщениеДобавлено: 17 сен 2014 

Выпуски 1, 2
Страна: Россия
Год выпуска: 2012
Жанр: мультфильм, короткометражка, комедия
Продолжительность: ~ 5 минут / серия

Субтитры: нет
Оригинальная аудиодорожка: русский

Озвучивал: Даниил Эльдаров

Режиссер: Денис Червяцов, Святослав Ушаков, Алексей Котеночкин

Описание: В далеком красочном городе обитают самые настоящие живые паровозы. Кроме взрослых составов, ежедневно уезжающих на работу, есть и самые маленькие, среди которых наши главные герои — паровозик Тишка и его друзья. С ними вечно случается что-то забавное, вместе узнают, стоит ли верить в чудеса, что важнее, победа или дружба и нужно ли бояться пробовать что-то новое.






Качество: DVDRip (DVD5 R5)
Формат: AVI

Видео: 720x400 (16:9), 25.000 fps, XViD ~ 1800 kbps avg, 0.250 bit/pixel
Аудио: 48 kHz, АС3 2 ch, 192 kbps, русский

Релиз от:
Выпуск 1: Чего боится страх.
01. Сон
02. Дерево желаний
03. Чего боится страх
04. Лучший подарок
05. Поэзия
06. Кто быстрее
07. Клякса
08. Букет для Эльки

Выпуск 2: Самый лучший цирк.
01. Василич не хочет дружить
02. Секреты от друзей
03. Самый лучший цирк
04. Команда

Выпуск 3: Разрушители мифов.
01. Невезучий день
02. Разрушители мифов
03. Невезуха
04. Кино

Внимание! Раздача ведётся путём добавления новых серий; при каждом добавлении создаётся новый торрент-файл. Чтобы начать докачку новой серии, пользователям необходимо сделать следующее:
(1) остановить скачивание;
(2) удалить старый торрент-файл у себя из клиента (старые серии удалять не надо);
(3) скачать новый торрент-файл и запустить его у себя в клиенте вместо старого, при этом указать клиенту путь в старую папку куда и должно происходить скачивание новых серий.
Ваш клиент при этом должен произвести хеширование (проверку) старой папки (если он не производит проверку сам – помогите ему сделать это), и будет докачивать только те серии которых у вас ещё нет. Старые серии при этом не удаляются, а продолжают раздаваться!
Если вы уже удалили старые серии, то предотвратить повторную закачку старых серий можно, отжав галочку в соответствующих местах при запуске нового торрент-файла. Желательно старые серии не удалять как можно дольше, чтобы релизёр не столько продолжал раздавать старые серии, а смог сконцентрироваться на новых.

Общее
Полное имя : Parovozik.Tishka.2012.O.DVDRip�1.Chego.boitsya.strah�1.avi
Формат : AVI
Формат/Информация : Audio Video Interleave
Размер файла : 87,2 Мбайт
Продолжительность : 5 м. 32 с.
Общий поток : 2200 Кбит/сек
Программа кодирования : VirtualDubMod 1.5.10.3 | www.virtualdub-fr.org || (build 2550/release)
Библиотека кодирования : VirtualDubMod build 2550/release

Видео
Идентификатор : 0
Формат : MPEG-4 Visual
Профиль формата : Advanced Simple@L5
Параметр BVOP формата : 1
Параметр QPel формата : Нет
Параметр GMC формата : Без точки перехода
Параметр матрицы формата : Выборочная
Идентификатор кодека : XVID
Идентификатор кодека/Подсказка : XviD
Продолжительность : 5 м. 32 с.
Битрейт : 1998 Кбит/сек
Ширина : 720 пикселей
Высота : 400 пикселей
Соотношение сторон : 16:9
Частота кадров : 25,000 кадров/сек
Цветовое пространство : YUV
Субдискретизация насыщенности : 4:2:0
Битовая глубина : 8 бит
Тип развёртки : Прогрессивная
Метод сжатия : С потерями
Бит/(Пиксели*Кадры) : 0.277
Размер потока : 79,2 Мбайт (91%)
Библиотека кодирования : XviD 65

Аудио
Идентификатор : 1
Формат : AC-3
Формат/Информация : Audio Coding 3
Расширение режима : CM (complete main)
Параметр Endianness формата : Big
Идентификатор кодека : 2000
Продолжительность : 5 м. 32 с.
Вид битрейта : Постоянный
Битрейт : 192 Кбит/сек
Каналы : 2 канала
Расположение каналов : Front: L R
Частота : 48,0 КГц
Битовая глубина : 16 бит
Метод сжатия : С потерями
Размер потока : 7,60 Мбайт (9%)
Выравнивание : Разделение по промежуткам
Продолжительность промежутка : 40 мс. (1,00 видеокадр)
Время предзагрузки промежутка : 500 мс.



http://rutor.org/torrent/252894/

http://screenshotcomparison.com/comparison/33321 - чёткость, квадраты, перекроп и серьезно нарушен аспект.

Торрент перезалит 13 сентября 2014 года, добавлены 4 новые серии третьего выпуска.



   Похожие торренты   Торрент   Размер 
В этой теме нет новых непрочитанных сообщений. Паровозик Тишка [S01х01-16 из 45] (2012) DVDRip-AVC от New-Team | лицензия

78 | 10

1.28 ГБ

В этой теме нет новых непрочитанных сообщений. Паровозик Тишка [S01х01-16 из 45] (2012) 3xDVD5 от New-Team | Лицензия

29 | 11

8.65 ГБ

В этой теме нет новых непрочитанных сообщений. Паровозик Тишка [01-02х01-55 из ??] (2012) DVDRip-AVC от New-Team | лицензия

168 | 26

4.31 ГБ

В этой теме нет новых непрочитанных сообщений. Паровозик Тишка [01-02х01-55 из ??] (2012) DVDRip от New-Team | лицензия

129 | 57

4.31 ГБ

В этой теме нет новых непрочитанных сообщений. Паровозик Тишка [01-02х01-55 из ?] (2012) 11xDVD5 от New-Team | Лицензия

24 | 11

32.18 ГБ

В этой теме нет новых непрочитанных сообщений. Паровозик Тишка [01-08 из 08] (2012) DVDRip-AVC от Youtracker | лицензия

1 | 2

673.52 МБ

В этой теме нет новых непрочитанных сообщений. Паровозик Тишка [01-08 из 08] (2012) DVDRip от Youtracker | лицензия

1 | 3

674.17 МБ




Вы не можете начинать темы
Вы не можете отвечать на сообщения
Вы не можете редактировать свои сообщения
Вы не можете удалять свои сообщения
Вы не можете добавлять вложения

Перейти:  
Для Мосгорсуда, Роскомнадзора и рекламодателей: mosgorsud-torrent[собачка]yandex.ru
 Вход
ppkBB3cker v.2 © 2008-2014 @ PPK
[ Time : 0.173s | 15 Queries | GZIP : Off ]

Торрент трекер RUTOR.IN, Не можете зайти на rutor.org? Какой новый адрес рутор? Какое зеркало рутор? Не работает rutor.org и зеркала? Тогда наш торрент специально для вас. Rutor.in неофициальное зеркало rutor. В случае если у Вас заблокирован rutor или вдруг Вы не можете на него зайти, то Вы без труда сможете скачать бесплатно и без рекламы последние новинки кино, игр, сериалов и прочего у нас, на Rutor.in. Не нужно использовать прокси, чтобы зайти на рутор, достаточно воспользоваться нашим ресурсом. Все новые фильмы, игры, сериалы, книги и музыка за 2013 и 2014 годы через торрент бесплатно. Скачивайте фильмы в хорошем качестве, игры для пк, xbox, playstation без регистрации. У нас вы найдете новые Зарубежные сериалы и Русские сериалы 2013, 2014, 2015 годов. Оставайтесь с нами, качайте любимые фильмы, игры, сериалы, книги и музыку.