img image001 image001 image001 image001 image001 image001 image001 image001 image001 image001 image001 image001 image001 image001 image001

Planets Sun Sun Sun
Статистика раздачи
Автор: Nickolas3434 | Размер: 3.04 ГБ | Добавлен: 17 сен 2014
Раздают: 135    Качают: 7
Скачать торрент
Скачать торрент
Описание торрента

СообщениеДобавлено: 17 сен 2014 


Название: Дамбо
Оригинальное название: Dumbo
Год выпуска: 1941
Страна: США
Жанр: мультфильм, мюзикл, семейный
Продолжительность: 01:03:56
Перевод: Дубляж
Субтитры:Русские (Полные), английские (полные)
Вид субтитров Вшитые, отключаемые


Режиссер: Сэмюэл Армстронг / Samuel Armstrong, Норман Фергюсон / Norman Ferguson, Уилфред Джексон / Wilfred Jackson

В ролях: Джеймс Бескетт (Crow / озвучка / в титрах не указан / слухи), Херман Бинг (The Ringmaster / озвучка / в титрах не указан), Билли Блэтчер (Clown / озвучка / в титрах не указан), Эдвард Брофи (Timothy Q. Mouse / озвучка / в титрах не указан), Джим Кармайкл (Crow / озвучка / в титрах не указан), Холл Джонсон Шор (Choral Sounds, в титрах не указан), Клифф Эдвардс (Jim Crow / озвучка / в титрах не указан), Верна Фелтон (The Elephant Matriarch / Mrs. Jumbo / озвучка / в титрах не указана), Норин Гэммилл (Catty the Elephant / озвучка / в титрах не указана), Эдди Холден (Clown / озвучка / в титрах не указан), Стерлинг Холлоуэй (Mr. Stork / озвучка / в титрах не указан), Малкольм Хаттон (Skinny / озвучка / в титрах не указан)


Описание:
История о маленьком слоненке из цирка, родившемся с очень большими ушами, что было рассмотрено как позорное явление среди цирковых слонов. Но зато он научился летать.


Рейтинг

imdb.com: 7.30 (61 508)
MPAA: G - Нет возрастных ограничений


Автор рипа:Tiberiumsun69



Качество: BDRip 720p / 60 FPS
Формат: MKV
Видео кодек: AVC
Аудио кодек:AC3
Видео: AVC, 960x720, 5712 kbps, 59,940 fps
Аудио №1: русский / AC3 / 2.0 / 48 kHz / 320 kbps / 16 bit |Дубляж|
Аудио №2: английский / AC3 / 5.1 / 48 kHz / 640 kbps / 16 bit
Главы Есть



General
Unique ID : 206747247041762702589173967483466063407 (0x9B8A124740C96944AB4BA595E44A9E2F)
Complete name : A:1080p 60fpsДамбо 720p 60fps.mkv
Format : Matroska
Format version : Version 4 / Version 2
File size : 3.04 GiB
Duration : 1h 3mn
Overall bit rate : 6 808 Kbps
Encoded date : UTC 2014-09-13 01:08:02
Writing application : mkvmerge v6.9.1 ('Blue Panther') 64bit built on Apr 18 2014 18:23:38
Writing library : libebml v1.3.0 + libmatroska v1.4.1

Video
ID : 1
Format : AVC
Format/Info : Advanced Video Codec
Format profile : High@L4.1
Format settings, CABAC : Yes
Format settings, ReFrames : 9 frames
Codec ID : V_MPEG4/ISO/AVC
Duration : 1h 3mn
Bit rate : 5 713 Kbps
Width : 960 pixels
Height : 720 pixels
Display aspect ratio : 4:3
Frame rate : 59.940 fps
Color space : YUV
Chroma subsampling : 4:2:0
Bit depth : 8 bits
Scan type : Progressive
Bits/(Pixel*Frame) : 0.138
Stream size : 2.55 GiB (84%)
Writing library : x264 core 133 r2334 a3ac64b
Encoding settings : cabac=1 / ref=9 / deblock=1:-1:-1 / analyse=0x3:0 / me=umh / subme=9 / psy=1 / psy_rd=1.00:0.10 / mixed_ref=1 / me_range=42 / chroma_me=0 / trellis=2 / 8x8dct=1 / cqm=0 / deadzone=21,11 / fast_pskip=0 / chroma_qp_offset=-3 / threads=12 / lookahead_threads=1 / sliced_threads=0 / nr=0 / decimate=0 / interlaced=0 / bluray_compat=0 / constrained_intra=0 / bframes=6 / b_pyramid=2 / b_adapt=2 / b_bias=0 / direct=1 / weightb=1 / open_gop=0 / weightp=2 / keyint=594 / keyint_min=59 / scenecut=40 / intra_refresh=0 / rc=crf / mbtree=0 / crf=15.0 / qcomp=0.60 / qpmin=0 / qpmax=69 / qpstep=4 / ip_ratio=1.40 / pb_ratio=1.30 / aq=0
Language : English
Default : Yes
Forced : No

Audio #1
ID : 2
Format : AC-3
Format/Info : Audio Coding 3
Format profile : Dolby Digital
Mode extension : CM (complete main)
Codec ID : A_AC3
Duration : 1h 3mn
Bit rate mode : Constant
Bit rate : 320 Kbps
Channel(s) : 2 channels
Channel positions : Front: L R
Sampling rate : 48.0 KHz
Bit depth : 16 bits
Compression mode : Lossy
Stream size : 146 MiB (5%)
Title : Дубляж
Language : Russian
Default : Yes
Forced : No

Audio #2
ID : 3
Format : AC-3
Format/Info : Audio Coding 3
Mode extension : CM (complete main)
Codec ID : A_AC3
Duration : 1h 3mn
Bit rate mode : Constant
Bit rate : 640 Kbps
Channel(s) : 6 channels
Channel positions : Front: L C R, Side: L R, LFE
Sampling rate : 48.0 KHz
Bit depth : 16 bits
Compression mode : Lossy
Stream size : 293 MiB (9%)
Title : Оригинал
Language : English
Default : No
Forced : No

Text #1
ID : 4
Format : UTF-8
Codec ID : S_TEXT/UTF8
Codec ID/Info : UTF-8 Plain Text
Title : Полные
Language : Russian
Default : No
Forced : No

Text #2
ID : 5
Format : UTF-8
Codec ID : S_TEXT/UTF8
Codec ID/Info : UTF-8 Plain Text
Title : Полные
Language : English
Default : No
Forced : No

Menu
00:00:00.000 : en:Chapter 1
00:01:19.871 : en:Chapter 2
00:04:14.921 : en:Chapter 3
00:06:34.352 : en:Chapter 4
00:12:49.727 : en:Chapter 5
00:17:01.437 : en:Chapter 6
00:20:08.040 : en:Chapter 7
00:23:32.702 : en:Chapter 8
00:28:30.542 : en:Chapter 9
00:35:19.534 : en:Chapter 10
00:38:11.914 : en:Chapter 11
00:42:34.510 : en:Chapter 12
00:46:07.723 : en:Chapter 13
00:51:00.682 : en:Chapter 14
00:54:42.278 : en:Chapter 15
00:58:40.350 : en:Chapter 16
01:00:19.449 : en:Chapter 17
01:03:55.831 : en:Chapter 18



Просьба к переливающим на другие сайты, в оформлении указывайте пожалуйста авторство рипа - Tiberiumsun69



   Похожие торренты   Торрент   Размер 
В этой теме нет новых непрочитанных сообщений. Дамбо / Dumbo (1941) BDRip 720p | 60 fps | D

0 | 78

3.72 ГБ

В этой теме нет новых непрочитанных сообщений. Дамбо / Dumbo (1941) BDRip [720p] от HQ-ViDEO.

9 | 4

4.37 ГБ

В этой теме нет новых непрочитанных сообщений. Дамбо / Dumbo (1941) BDRip 720p от Leonardo and Scarabey

207 | 35

1.4 ГБ

В этой теме нет новых непрочитанных сообщений. Дамбо / Dumbo (1941) BDRip от HQCLUB

251 | 16

1.49 ГБ

В этой теме нет новых непрочитанных сообщений. Дамбо / Dumbo (1941) BDRip 1080p | 60 fps | D

28 | 3

5.51 ГБ

В этой теме нет новых непрочитанных сообщений. Дамбо / Dumbo (1941) BDRip 1080p | 60 fps | D

0 | 31

7 ГБ

В этой теме нет новых непрочитанных сообщений. Дамбо / Dumbo (1941) Blu-Ray CEE

0 | 1

33.93 ГБ




Вы не можете начинать темы
Вы не можете отвечать на сообщения
Вы не можете редактировать свои сообщения
Вы не можете удалять свои сообщения
Вы не можете добавлять вложения

Перейти:  
Для Мосгорсуда, Роскомнадзора и рекламодателей: mosgorsud-torrent[собачка]yandex.ru
 Вход
ppkBB3cker v.2 © 2008-2014 @ PPK
[ Time : 0.037s | 15 Queries | GZIP : On ]

Торрент трекер RUTOR.IN, Не можете зайти на rutor.org? Какой новый адрес рутор? Какое зеркало рутор? Не работает rutor.org и зеркала? Тогда наш торрент специально для вас. Rutor.in неофициальное зеркало rutor. В случае если у Вас заблокирован rutor или вдруг Вы не можете на него зайти, то Вы без труда сможете скачать бесплатно и без рекламы последние новинки кино, игр, сериалов и прочего у нас, на Rutor.in. Не нужно использовать прокси, чтобы зайти на рутор, достаточно воспользоваться нашим ресурсом. Все новые фильмы, игры, сериалы, книги и музыка за 2013 и 2014 годы через торрент бесплатно. Скачивайте фильмы в хорошем качестве, игры для пк, xbox, playstation без регистрации. У нас вы найдете новые Зарубежные сериалы и Русские сериалы 2013, 2014, 2015 годов. Оставайтесь с нами, качайте любимые фильмы, игры, сериалы, книги и музыку.