img image001 image001 image001 image001 image001 image001 image001 image001 image001 image001 image001 image001 image001 image001 image001

Planets Sun Sun Sun
Статистика раздачи
Автор: Nickolas3434 | Размер: 744.79 МБ | Добавлен: 17 сен 2014
Раздают: 460    Качают: 20
Скачать торрент
Скачать торрент
Описание торрента

СообщениеДобавлено: 17 сен 2014 


Страна: США / Turner Entertainment Co., Warner Brothers Animation

Жанр: мультфильм, комедия
Год выпуска: 2014
Продолжительность: 00:54:22

Перевод: Профессиональный (многоголосый закадровый)
Cубтитры: нет
Оригинальная аудиодорожка: нет

Режиссер: Тони Червоне / Tony Cervone

В ролях: Келли Стейблз, Викки Льюис, Джим Каммингс, Лорейн Ньюмен, Уэйн Найт

Описание: Всеми любимая парочка — кот и мышь - вернулись в этой волшебной сказке! А вместе с ними — и песни, веселье и магия. Приключение наших героев начинается с того, что они находят странное яйцо, которое было украдено у огромного огнедышащего дракона! Вскоре из яйца вылупляется малыш Паффи и решает, что Том — это его мама. Настоящая мама-дракониха хочет вернуть своего драконёнка, но не она одна — за малышом охотится ведьма Дризельда! С помощью волшебных союзников и зверей Тому и Джерри предстоит остановить ведьму и вернуть детёныша его маме. Вас ждёт магия, сражения и, конечно же, море веселья! Смогут ли друзья помочь героям этой сказки, будет ли у неё счастливый финал? Отправьтесь в это увлекательное путешествие всей семьёй и сами узнаете!



Качество: DVDRip / DVD5 R5 от СР Дистрибуция
Формат: AVI

Видео: 720x400, XviD 1714 kbps / 25 fps / 16:9 / 0.238 bit/pix
Аудио: Russian: 48 kHz, AC3, 2/0 ch, 192.00 kbps

Раздача от:
Общее
Полное имя : Tom.i.Djerri.Poteryannyi.Drakon.2014.P.DVDRip_[New-Team]_by_avproh.avi
Формат : AVI
Формат/Информация : Audio Video Interleave
Размер файла : 745 Мбайт
Продолжительность : 54 м.
Общий поток : 1915 Кбит/сек
Программа кодирования : VirtualDubModRus 1.5.10.2 (build 2542/release)
Библиотека кодирования : VirtualDubMod build 2542/release

Видео
Идентификатор : 0
Формат : MPEG-4 Visual
Профиль формата : Advanced Simple@L5
Параметр BVOP формата : 1
Параметр QPel формата : Нет
Параметр GMC формата : Без точки перехода
Параметр матрицы формата : Выборочная
Идентификатор кодека : XVID
Идентификатор кодека/Подсказка : XviD
Продолжительность : 54 м.
Битрейт : 1714 Кбит/сек
Ширина : 720 пикселей
Высота : 400 пикселей
Соотношение сторон : 16:9
Частота кадров : 25,000 кадров/сек
Цветовое пространство : YUV
Субдискретизация насыщенности : 4:2:0
Битовая глубина : 8 бит
Тип развёртки : Прогрессивная
Метод сжатия : С потерями
Бит/(Пиксели*Кадры) : 0.238
Размер потока : 666 Мбайт (89%)
Библиотека кодирования : XviD 73

Аудио
Идентификатор : 1
Формат : AC-3
Формат/Информация : Audio Coding 3
Расширение режима : CM (complete main)
Параметр Endianness формата : Big
Идентификатор кодека : 2000
Продолжительность : 54 м.
Вид битрейта : Постоянный
Битрейт : 192 Кбит/сек
Каналы : 2 канала
Расположение каналов : Front: L R
Частота : 48,0 КГц
Битовая глубина : 16 бит
Метод сжатия : С потерями
Размер потока : 74,7 Мбайт (10%)
Выравнивание : Разделение по промежуткам
Продолжительность промежутка : 40 мс. (1,00 видеокадр)
Время предзагрузки промежутка : 500 мс.





   Похожие торренты   Торрент   Размер 
В этой теме нет новых непрочитанных сообщений. Том и Джерри: Потерянный дракон / Tom & Jerry: The Lost Dragon (2014) DVDRip от New-Team | P | лицензия

412 | 13

1.23 ГБ

В этой теме нет новых непрочитанных сообщений. Том и Джерри: Потерянный дракон / Tom & Jerry: The Lost Dragon (2014) DVDRip-AVC от New-Team | P | лицензия

329 | 12

1.27 ГБ

В этой теме нет новых непрочитанных сообщений. Том и Джерри: Потерянный дракон / Tom & Jerry: The Lost Dragon (2014) DVD5 от New-Team | P | Лицензия

123 | 14

3.74 ГБ

В этой теме нет новых непрочитанных сообщений. Том и Джерри: Потерянный дракон / Tom & Jerry: The Lost Dragon (2014) DVDRip-AVC от Wazzzup | P | лицензия

251 | 19

744.3 МБ

В этой теме нет новых непрочитанных сообщений. Том и Джерри: Потерянный дракон / Tom & Jerry: The Lost Dragon (2014) DVDRip | L1

1622 | 25

751.64 МБ

В этой теме нет новых непрочитанных сообщений. Том и Джерри: Потерянный дракон / Tom & Jerry: The Lost Dragon (2014) DVDRip | L1

880 | 25

1.18 ГБ

В этой теме нет новых непрочитанных сообщений. Том и Джерри: Потерянный дракон / Tom & Jerry: The Lost Dragon (2014) BDRip 720p | Лицензия

300 | 102

2.37 ГБ




Вы не можете начинать темы
Вы не можете отвечать на сообщения
Вы не можете редактировать свои сообщения
Вы не можете удалять свои сообщения
Вы не можете добавлять вложения

Перейти:  
Для Мосгорсуда, Роскомнадзора и рекламодателей: mosgorsud-torrent[собачка]yandex.ru
 Вход
ppkBB3cker v.2 © 2008-2014 @ PPK
[ Time : 0.058s | 15 Queries | GZIP : Off ]

Торрент трекер RUTOR.IN, Не можете зайти на rutor.org? Какой новый адрес рутор? Какое зеркало рутор? Не работает rutor.org и зеркала? Тогда наш торрент специально для вас. Rutor.in неофициальное зеркало rutor. В случае если у Вас заблокирован rutor или вдруг Вы не можете на него зайти, то Вы без труда сможете скачать бесплатно и без рекламы последние новинки кино, игр, сериалов и прочего у нас, на Rutor.in. Не нужно использовать прокси, чтобы зайти на рутор, достаточно воспользоваться нашим ресурсом. Все новые фильмы, игры, сериалы, книги и музыка за 2013 и 2014 годы через торрент бесплатно. Скачивайте фильмы в хорошем качестве, игры для пк, xbox, playstation без регистрации. У нас вы найдете новые Зарубежные сериалы и Русские сериалы 2013, 2014, 2015 годов. Оставайтесь с нами, качайте любимые фильмы, игры, сериалы, книги и музыку.