img image001 image001 image001 image001 image001 image001 image001 image001 image001 image001 image001 image001 image001 image001 image001

Planets Sun Sun Sun
Статистика раздачи
Автор: Nickolas3434 | Размер: 744.3 МБ | Добавлен: 17 сен 2014
Раздают: 251    Качают: 19
Скачать торрент
Скачать торрент
Описание торрента

СообщениеДобавлено: 17 сен 2014 

Информация о фильме
Название: Том и Джерри: Потерянный дракон
Оригинальное название: Tom & Jerry: The Lost Dragon
Год выхода: 2014
Жанр: Мультфильм, комедия
Режиссер: Тони Червоне
Озвучивали: Келли Стейблз, Викки Льюис, Джим Каммингс, Лорейн Ньюмен, Уэйн Найт

О фильме:
Всеми любимая парочка – кот и мышь – вернулись в этой волшебной сказке! А вместе с ними – и песни, веселье и магия. Приключение наших героев начинается с того, что они находят странное яйцо, которое было украдено у огромного огнедышащего дракона! Вскоре из яйца вылупляется малыш Паффи и решает, что Том – это его мама. Настоящая мама-дракониха хочет вернуть своего драконёнка, но не она одна – за малышом охотится ведьма Дризельда! С помощью волшебных союзников и зверей Тому и Джерри предстоит остановить ведьму и вернуть детёныша его маме. Вас ждёт магия, сражения и, конечно же, море веселья! Смогут ли друзья помочь героям этой сказки, будет ли у неё счастливый финал? Отправьтесь в это увлекательное путешествие всей семьёй и сами узнаете!



Страна: США
Студия: Turner Entertainment / Warner Bros. Animation
Продолжительность: 00:54:22
Перевод: Профессиональный (многоголосый, закадровый)

Файл
Кодек: х264
Качество: DVDRip-AVC (DVD5)
Видео: 704x392 (16:9), 23,976 fps, x264 ~ 1720 kbps avg, 0.249 bit/pixel
Аудио: 48,0 kHz, Audio Coding 3, 2 ch, ~192 kbps avg
Субтитры: Русские

Семпл



raw [info]: 704x392p 1:1 @ 25/1 fps (cfr)
x264 [info]: using SAR=1/1
x264 [info]: using cpu capabilities: MMX2 SSE2Fast SSSE3 SSE4.2 AVX
x264 [info]: profile High, level 3.2
x264 [info]: frame I:962 Avg QP:13.38 size: 88153
x264 [info]: frame P:21275 Avg QP:16.94 size: 19303
x264 [info]: frame B:59314 Avg QP:21.83 size: 3470
x264 [info]: consecutive B-frames: 3.9% 4.9% 15.3% 36.5% 17.0% 11.4% 3.9% 2.9% 4.3%
x264 [info]: mb I I16..4: 12.7% 41.8% 45.5%
x264 [info]: mb P I16..4: 1.5% 5.3% 3.3% P16..4: 36.9% 17.4% 20.6% 0.3% 0.2% skip:14.9%
x264 [info]: mb B I16..4: 0.2% 0.4% 0.4% B16..8: 24.9% 5.5% 2.9% direct: 2.7% skip:62.9% L0:44.9% L1:44.7% BI:10.4%
x264 [info]: 8x8 transform intra:47.9% inter:31.0%
x264 [info]: direct mvs spatial:95.6% temporal:4.4%
x264 [info]: coded y,uvDC,uvAC intra: 81.4% 90.9% 81.7% inter: 17.1% 21.7% 11.5%
x264 [info]: i16 v,h,dc,p: 51% 18% 17% 14%
x264 [info]: i8 v,h,dc,ddl,ddr,vr,hd,vl,hu: 14% 15% 13% 7% 9% 8% 11% 9% 14%
x264 [info]: i4 v,h,dc,ddl,ddr,vr,hd,vl,hu: 13% 12% 9% 9% 12% 10% 12% 10% 14%
x264 [info]: i8c dc,h,v,p: 43% 29% 15% 12%
x264 [info]: Weighted P-Frames: Y:1.7% UV:1.4%
x264 [info]: ref P L0: 53.9% 6.5% 17.4% 4.5% 5.0% 3.4% 4.2% 2.1% 2.2% 0.8% 0.0%
x264 [info]: ref B L0: 75.5% 11.9% 4.8% 2.6% 1.9% 1.7% 1.1% 0.5%
x264 [info]: ref B L1: 92.8% 7.2%
x264 [info]: kb/s:1719.88

x264 [total]: encoded 81551 frames, 18.12 fps, 1719.88 kb/s
Общее
Уникальный идентификатор : 188527199484518816044146157091323878420 (0x8DD50493E7FF1E18889DD5182EF39C14)
Полное имя : D:ВидеоTom.i.Djerri.Poteryannyi.Drakon.2014 .DVDRip-AVC by Vovan1979(RG WazZzuP).mkv
Формат : Matroska
Версия формата : Version 4 / Version 2
Размер файла : 744 Мбайт
Продолжительность : 54 м.
Общий поток : 1911 Кбит/сек
Название фильма : Tom.i.Djerri.Poteryannyi.Drakon.2014
Дата кодирования : UTC 2014-09-14 11:06:32
Программа кодирования : mkvmerge v7.1.0 ('Good Love') 64bit built on Jul 27 2014 13:06:55
Библиотека кодирования : libebml v1.3.0 + libmatroska v1.4.1
_STATISTICS_WRITING_APP : mkvmerge v7.1.0 ('Good Love') 64bit built on Jul 27 2014 13:06:55
_STATISTICS_WRITING_DATE_UTC : 2014-09-14 11:06:32
_STATISTICS_TAGS : BPS DURATION NUMBER_OF_FRAMES NUMBER_OF_BYTES
DURATION : 00:54:03.914000000
NUMBER_OF_FRAMES : 427
NUMBER_OF_BYTES : 20931

Видео
Идентификатор : 1
Формат : AVC
Формат/Информация : Advanced Video Codec
Профиль формата : High@L3.2
Параметр CABAC формата : Да
Параметр ReFrames формата : 9 кадров
Идентификатор кодека : V_MPEG4/ISO/AVC
Продолжительность : 54 м.
Битрейт : 1720 Кбит/сек
Ширина : 704 пикселя
Высота : 392 пикселя
Соотношение сторон : 16:9
Режим частоты кадров : Постоянный
Частота кадров : 25,000 кадров/сек
Цветовое пространство : YUV
Субдискретизация насыщенности : 4:2:0
Битовая глубина : 8 бит
Тип развёртки : Прогрессивная
Бит/(Пиксели*Кадры) : 0.249
Размер потока : 655 Мбайт (88%)
Заголовок : by Vovan1979(RG WazZzuP)KZ
Библиотека кодирования : x264 core 130 r2273 b3065e6
Настройки программы : cabac=1 / ref=9 / deblock=1:-1:-1 / analyse=0x3:0x113 / me=umh / subme=9 / psy=1 / psy_rd=1.00:0.15 / mixed_ref=1 / me_range=32 / chroma_me=1 / trellis=2 / 8x8dct=1 / cqm=0 / deadzone=21,11 / fast_pskip=1 / chroma_qp_offset=-3 / threads=6 / lookahead_threads=1 / sliced_threads=0 / nr=0 / decimate=1 / interlaced=0 / bluray_compat=0 / constrained_intra=0 / bframes=8 / b_pyramid=2 / b_adapt=2 / b_bias=0 / direct=3 / weightb=1 / open_gop=0 / weightp=2 / keyint=250 / keyint_min=25 / scenecut=40 / intra_refresh=0 / rc_lookahead=40 / rc=2pass / mbtree=1 / bitrate=1720 / ratetol=1.0 / qcomp=0.60 / qpmin=0 / qpmax=69 / qpstep=4 / cplxblur=20.0 / qblur=0.5 / ip_ratio=1.40 / aq=1:1.00
Default : Да
Forced : Нет

Аудио
Идентификатор : 2
Формат : AC-3
Формат/Информация : Audio Coding 3
Расширение режима : CM (complete main)
Параметр Endianness формата : Big
Идентификатор кодека : A_AC3
Продолжительность : 54 м.
Вид битрейта : Постоянный
Битрейт : 192 Кбит/сек
Каналы : 2 канала
Расположение каналов : Front: L R
Частота : 48,0 КГц
Битовая глубина : 16 бит
Метод сжатия : С потерями
Размер потока : 74,8 Мбайт (10%)
Язык : Russian
Default : Да
Forced : Нет

Текст
Идентификатор : 3
Формат : UTF-8
Идентификатор кодека : S_TEXT/UTF8
Идентификатор кодека/Информация : UTF-8 Plain Text
Язык : Russian
Default : Нет
Forced : Нет

Меню
00:00:00.000 : en:00:00:00.000
00:10:17.920 : en:00:10:17.920
00:17:41.200 : en:00:17:41.200
00:26:40.360 : en:00:26:40.360
00:32:30.200 : en:00:32:30.200
00:36:50.640 : en:00:36:50.640
00:47:41.360 : en:00:47:41.360
00:51:27.600 : en:00:51:27.600

Релиз от:



   Похожие торренты   Торрент   Размер 
В этой теме нет новых непрочитанных сообщений. Том и Джерри: Потерянный дракон / Tom & Jerry: The Lost Dragon (2014) DVDRip от New-Team | P | лицензия

436 | 18

744.79 МБ

В этой теме нет новых непрочитанных сообщений. Том и Джерри: Потерянный дракон / Tom & Jerry: The Lost Dragon (2014) DVDRip-AVC от New-Team | P | лицензия

329 | 12

1.27 ГБ

В этой теме нет новых непрочитанных сообщений. Том и Джерри: Потерянный дракон / Tom & Jerry: The Lost Dragon (2014) DVDRip от New-Team | P | лицензия

412 | 13

1.23 ГБ

В этой теме нет новых непрочитанных сообщений. Том и Джерри: Потерянный дракон / Tom & Jerry: The Lost Dragon (2014) DVDRip | L1

880 | 25

1.18 ГБ

В этой теме нет новых непрочитанных сообщений. Том и Джерри: Потерянный дракон / Tom & Jerry: The Lost Dragon (2014) DVDRip | L1

1622 | 25

751.64 МБ

В этой теме нет новых непрочитанных сообщений. Том и Джерри: Потерянный дракон / Tom and Jerry: The Lost Dragon (2014) BDRemux 1080p | P | Лицензия

137 | 7

9.4 ГБ

В этой теме нет новых непрочитанных сообщений. Том и Джерри: Потерянный дракон / Tom & Jerry: The Lost Dragon (2014) BDRip 720p | Лицензия

308 | 105

2.37 ГБ




Вы не можете начинать темы
Вы не можете отвечать на сообщения
Вы не можете редактировать свои сообщения
Вы не можете удалять свои сообщения
Вы не можете добавлять вложения

Перейти:  
Для Мосгорсуда, Роскомнадзора и рекламодателей: mosgorsud-torrent[собачка]yandex.ru
 Вход
ppkBB3cker v.2 © 2008-2014 @ PPK
[ Time : 0.038s | 16 Queries | GZIP : Off ]

Торрент трекер RUTOR.IN, Не можете зайти на rutor.org? Какой новый адрес рутор? Какое зеркало рутор? Не работает rutor.org и зеркала? Тогда наш торрент специально для вас. Rutor.in неофициальное зеркало rutor. В случае если у Вас заблокирован rutor или вдруг Вы не можете на него зайти, то Вы без труда сможете скачать бесплатно и без рекламы последние новинки кино, игр, сериалов и прочего у нас, на Rutor.in. Не нужно использовать прокси, чтобы зайти на рутор, достаточно воспользоваться нашим ресурсом. Все новые фильмы, игры, сериалы, книги и музыка за 2013 и 2014 годы через торрент бесплатно. Скачивайте фильмы в хорошем качестве, игры для пк, xbox, playstation без регистрации. У нас вы найдете новые Зарубежные сериалы и Русские сериалы 2013, 2014, 2015 годов. Оставайтесь с нами, качайте любимые фильмы, игры, сериалы, книги и музыку.
cron