img image001 image001 image001 image001 image001 image001 image001 image001 image001 image001 image001 image001 image001 image001 image001

Planets Sun Sun Sun
Статистика раздачи
Автор: Nickolas3434 | Размер: 2.61 ГБ | Добавлен: 17 сен 2014
Раздают: 28    Качают: 7
Скачать торрент
Скачать торрент
Описание торрента

СообщениеДобавлено: 17 сен 2014 

Страна: США
Год выпуска: 1931-1940
Киностудии: Warner Bros. Animation
Жанр: мультфильм, короткометражка, комедия, семейный
Продолжительность: ~ 8 минут / серия
Перевод: Профессиональный (Многоголосый закадровый)
Субтитры: нет
Оригинальная аудиодорожка: английский


Режиссеры: Фрэнк Тэшлин / Frank Tashlin, Текс Эйвери / Tex Avery, Фриц Фрилинг / Friz Freleng, Кэл Далтон / Cal Dalton, Кэл Ховард / Cal Howard, Чак Джонс / Chuck Jones, Рудольф Исинг / Rudolf Ising


Озвучивали: Мэл Бланк, Тед Пирс, Дэйв Вебер, Томми Бонд, Бернисе Хансен, The Varsity Three, Текс Эйвери, Джон Диринг, The Four Blackbirds, Делос Джукес, Джорджия Старк, Билли Блэтчер, Джонни Дэвис, Джо Догерти, Бернисе Хансен, Марта Вентуорф, Дэнни Уэбб, Элвия Оллман, Сара Бернер, Фил Крамер, Клифф Назарро, Джордж МакФарлэнд, Poley McClintock, The Pied Pipers, Мэйбл Тодд, Би Бенадерет, Карлтон Каделл, Джонни Мюррэй, The Rhythmettes...

Описание: Сборник короткометражных мультфильмов. Производство Уорнер Бразерс, США, 1931-1940 гг. Продолжительность 131 мнинута. Для любой зрительской аудитории. Фильмы перешли в общественное достояние на территории Российской Федерации.



Качество: DVDRip / DVD5 R5 от ООО "Дивайс"
Формат: AVI

Видео: 720x544 (4:3), 25.000 fps, XviD ~ 1800 kbps avg, 0.184 bit/pixel
Аудио 1: 48 kHz, Dolby AC3 5.1 384 kbps, русский
Аудио 2: 48 kHz, Dolby AC3 5.1 384 kbps, английский

Пояснение к раздаче: Данный сборник сделан с лицензионного диска DVD5 R5 от ООО "Дивайс", выпущенного в 2012 году. Многих серий, присутствующих в этой раздаче, на трекере нет. Соотношение числа кадров отдельных серий могут несколько отличаться от того, что представлено в раздаче. Это соотношение зависит от исходника, а подгонять всё под один размер в ущерб качеству я не привык.

Релиз от:

01: Посыльный Mисс Глори / Page miss Glory, 1936
02: Веселый лед / Cracked Ice, 1938
03: Бандитскому разбою пришел конец / Thugs with Dirty Mugs, 1939
04: У каждого свое убежище / Have you got any castles? 1938
05: Я люблю петь / I Love to Singa, 1936
06: Поговорим о погоде / Speaking of the Weather, 1937
07: Утка Даффи и яйцеголовый / Daffy Duck & Egghead, 1938
08: Дикий кролик / A Wild Hare, 1940
09: У меня не было шляпы / I Haven't Got a Hat, 1935
10: Вечер начинающих звезд / Hamateur Night, 1939
11: Кошачий колледж / Katnip Kollege, 1938
12: Золушка встречает Принца / Cinderella Meets Fella, 1938
13: Маленький охотник на львов / The Little Lion Hunter, 1939
14: Вруша-майор / The Major Lied 'Til Dawn, 1938
15: Пробег по всей земле / Cross Country Detours, 1940
16: Отправляйся восвояси / Shuffle Off to Buffalo, 1933
17: Улыбайся, давай, улыбайся! / Smile, Darn Ya, Smile! 1931

Общее
Полное имя : 01.Posylnyi.miss.Glori.avi
Формат : AVI
Формат/Информация : Audio Video Interleave
Размер файла : 142 Мбайт
Продолжительность : 7 м. 41 с.
Общий поток : 2576 Кбит/сек
Программа кодирования : VirtualDubModRus 1.5.10.2 (build 2542/release)
Библиотека кодирования : VirtualDubMod build 2542/release

Видео
Идентификатор : 0
Формат : MPEG-4 Visual
Профиль формата : Advanced Simple@L5
Параметр BVOP формата : 1
Параметр QPel формата : Нет
Параметр GMC формата : Без точки перехода
Параметр матрицы формата : Выборочная
Идентификатор кодека : XVID
Идентификатор кодека/Подсказка : XviD
Продолжительность : 7 м. 41 с.
Битрейт : 1794 Кбит/сек
Ширина : 720 пикселей
Высота : 544 пикселя
Соотношение сторон : 4:3
Частота кадров : 25,000 кадров/сек
Цветовое пространство : YUV
Субдискретизация насыщенности : 4:2:0
Битовая глубина : 8 бит
Тип развёртки : Прогрессивная
Метод сжатия : С потерями
Бит/(Пиксели*Кадры) : 0.183
Размер потока : 98,8 Мбайт (70%)
Библиотека кодирования : XviD 1.2.1 (UTC 2008-12-04)

Аудио #1
Идентификатор : 1
Формат : AC-3
Формат/Информация : Audio Coding 3
Расширение режима : CM (complete main)
Параметр Endianness формата : Big
Идентификатор кодека : 2000
Продолжительность : 7 м. 41 с.
Вид битрейта : Постоянный
Битрейт : 384 Кбит/сек
Каналы : 6 каналов
Расположение каналов : Front: L C R, Side: L R, LFE
Частота : 48,0 КГц
Битовая глубина : 16 бит
Метод сжатия : С потерями
Размер потока : 21,1 Мбайт (15%)
Выравнивание : Разделение по промежуткам
Продолжительность промежутка : 40 мс. (1,00 видеокадр)
Время предзагрузки промежутка : 500 мс.

Аудио #2
Идентификатор : 2
Формат : AC-3
Формат/Информация : Audio Coding 3
Расширение режима : CM (complete main)
Параметр Endianness формата : Big
Идентификатор кодека : 2000
Продолжительность : 7 м. 41 с.
Вид битрейта : Постоянный
Битрейт : 384 Кбит/сек
Каналы : 6 каналов
Расположение каналов : Front: L C R, Side: L R, LFE
Частота : 48,0 КГц
Битовая глубина : 16 бит
Метод сжатия : С потерями
Размер потока : 21,1 Мбайт (15%)
Выравнивание : Разделение по промежуткам
Продолжительность промежутка : 40 мс. (1,00 видеокадр)
Время предзагрузки промежутка : 500 мс.





   Похожие торренты   Торрент   Размер 
В этой теме нет новых непрочитанных сообщений. Веселые мелодии: Веселый лед / Looney Tunes: Cracked Ice [01-17 из 17] (1931-1940) DVDRip-AVC от New-Team | P

43 | 7

2.36 ГБ

В этой теме нет новых непрочитанных сообщений. Веселые мелодии: Веселый лед / Looney Tunes: Cracked Ice [01-17 из 17] (1931-1940) DVD5 от New-Team | P | Лицензия

17 | 7

4.2 ГБ

В этой теме нет новых непрочитанных сообщений. Веселые мелодии / Looney Tunes [01-157 из ?] (1931-1979) DVDRip от New-Team | P

42 | 28

19.56 ГБ

В этой теме нет новых непрочитанных сообщений. Веселые мелодии / Looney Tunes [01-157 из ?] (1931-1979) DVDRip-AVC от New-Team | P

58 | 52

18.33 ГБ

В этой теме нет новых непрочитанных сообщений. Веселые мелодии / Looney Tunes [01-165 из ?] (1931-1979) 11xDVD5, DVD9 New-Team | P

9 | 9

41.56 ГБ

В этой теме нет новых непрочитанных сообщений. Веселые мелодии / Looney Tunes (сборник короткометражных мультфильмов) / Серии: 1-165 из ? (Фрэнк Тэшлин...) [1931-1979, США, мультфильм, короткометражка, комедия, семейный, DVDRip-AVC] MVO

75 | 41

19.05 ГБ

В этой теме нет новых непрочитанных сообщений. Веселые мелодии / Looney Tunes (сборник короткометражных мультфильмов) / Серии: 1-165 из ? (Фрэнк Тэшлин...) [1931-1979, США, мультфильм, короткометражка, комедия, семейный, DVDRip] MVO

41 | 32

20.53 ГБ




Вы не можете начинать темы
Вы не можете отвечать на сообщения
Вы не можете редактировать свои сообщения
Вы не можете удалять свои сообщения
Вы не можете добавлять вложения

Перейти:  
Для Мосгорсуда, Роскомнадзора и рекламодателей: mosgorsud-torrent[собачка]yandex.ru
 Вход
ppkBB3cker v.2 © 2008-2014 @ PPK
[ Time : 0.045s | 15 Queries | GZIP : Off ]

Торрент трекер RUTOR.IN, Не можете зайти на rutor.org? Какой новый адрес рутор? Какое зеркало рутор? Не работает rutor.org и зеркала? Тогда наш торрент специально для вас. Rutor.in неофициальное зеркало rutor. В случае если у Вас заблокирован rutor или вдруг Вы не можете на него зайти, то Вы без труда сможете скачать бесплатно и без рекламы последние новинки кино, игр, сериалов и прочего у нас, на Rutor.in. Не нужно использовать прокси, чтобы зайти на рутор, достаточно воспользоваться нашим ресурсом. Все новые фильмы, игры, сериалы, книги и музыка за 2013 и 2014 годы через торрент бесплатно. Скачивайте фильмы в хорошем качестве, игры для пк, xbox, playstation без регистрации. У нас вы найдете новые Зарубежные сериалы и Русские сериалы 2013, 2014, 2015 годов. Оставайтесь с нами, качайте любимые фильмы, игры, сериалы, книги и музыку.