img image001 image001 image001 image001 image001 image001 image001 image001 image001 image001 image001 image001 image001 image001 image001

Planets Sun Sun Sun
Статистика раздачи
Автор: Nickolas3434 | Размер: 1.46 ГБ | Добавлен: 17 сен 2014
Раздают: 109    Качают: 7
Скачать торрент
Скачать торрент
Описание торрента

СообщениеДобавлено: 17 сен 2014 

Страна: Россия
Жанр: мультфильм, короткометражка, комедия, семейный
Год выпуска: 1999-2000
Продолжительность: 01:44:04 (4 серии по 00:26:01 минут)

Перевод: не требуется
Оригинальная аудиодорожка: русский
Cубтитры: нет

Режиссеры: Александр Макаров, Илья Максимов

Роли озвучивали:
Михаил Боярский, Вадим Гущин, Татьяна Михалевкина, Гелий Сысоев, Михаил Черняк, Юлия Бочанова, Эра Зиганшина, Анатолий Петров, Ян Цапник, Елена Шульман...

Описание:
Ураган переносит девочку Долли и щенка Тотошку из Канзаса в Волшебную страну, где жизнь не подчиняется обычным законам и возможны любые чудеса. Вместе с новыми друзьями: Соломенным Страшилой, Железным Дровосеком и Трусливым Львом — они направляются к Волшебнику Изумрудного Города, который может помочь ей вернуться домой. Волшебник соглашается исполнить по одному желанию каждого из друзей, но сначала они должны победить злую колдунью…





Исходник: DVD9 R5
Тип релиза: DVDRip
Контейнер: AVI

Видео: 688х512, (4:3), 25 fps, XviD ~ 1609 kbps avg, 0.183 bit/pixel
Аудио: 48 kHz, Dolby Digital AC3 5.1, 384 kbps

Раздача от:

01. Серебрянные туфельки (00:26:01)
02. Тайна великого волшебника (00:26:01)
03. Козни старой Момби (00:26:01)
04. Принцесса Озма (00:26:01)


Общее
Полное имя : Priklyucheniya.v.izumrudnom.gorode.1999.DVDRip_[New-team]_by_AVP_Studio.avi
Формат : AVI
Формат/Информация : Audio Video Interleave
Размер файла : 373 Мбайт
Продолжительность : 26 м.
Общий поток : 2003 Кбит/сек
Программа кодирования : VirtualDubModRus 1.5.10.2 (build 2542/release)
Библиотека кодирования : VirtualDubMod build 2542/release

Видео
Идентификатор : 0
Формат : MPEG-4 Visual
Профиль формата : Advanced Simple@L5
Параметр BVOP формата : 1
Параметр QPel формата : Нет
Параметр GMC формата : Без точки перехода
Параметр матрицы формата : Выборочная
Идентификатор кодека : XVID
Идентификатор кодека/Подсказка : XviD
Продолжительность : 26 м.
Битрейт : 1609 Кбит/сек
Ширина : 688 пикселей
Высота : 512 пикселей
Соотношение сторон : 4:3
Частота кадров : 25,000 кадров/сек
Цветовое пространство : YUV
Субдискретизация насыщенности : 4:2:0
Битовая глубина : 8 бит
Тип развёртки : Прогрессивная
Метод сжатия : С потерями
Бит/(Пиксели*Кадры) : 0.183
Размер потока : 299 Мбайт (80%)
Библиотека кодирования : XviD 73

Аудио
Идентификатор : 1
Формат : AC-3
Формат/Информация : Audio Coding 3
Расширение режима : CM (complete main)
Параметр Endianness формата : Big
Идентификатор кодека : 2000
Продолжительность : 26 м.
Вид битрейта : Постоянный
Битрейт : 384 Кбит/сек
Каналы : 6 каналов
Расположение каналов : Front: L C R, Side: L R, LFE
Частота : 48,0 КГц
Битовая глубина : 16 бит
Метод сжатия : С потерями
Размер потока : 71,4 Мбайт (19%)
Выравнивание : Разделение по промежуткам
Продолжительность промежутка : 40 мс. (1,00 видеокадр)
Время предзагрузки промежутка : 500 мс





   Похожие торренты   Торрент   Размер 
В этой теме нет новых непрочитанных сообщений. Приключения в изумрудном городе (1999-2000) DVDRip-AVC от New-Team

404 | 21

1.46 ГБ

В этой теме нет новых непрочитанных сообщений. Приключения в изумрудном городе (1999-2000) DVDRip от New-Team

169 | 10

744.36 МБ

В этой теме нет новых непрочитанных сообщений. Приключения в городе, которого нет (1974) DVDRip

13 | 3

1.36 ГБ

В этой теме нет новых непрочитанных сообщений. В городе все спокойно / La ville est tranquille (2000) DVDRip | A

3 | 0

1.46 ГБ

В этой теме нет новых непрочитанных сообщений. Фантоцци 2000 - Клонирование / Fantozzi 2000 - la clonazione (1999) DVDRip

78 | 5

786.16 МБ

В этой теме нет новых непрочитанных сообщений. Фантоцци 2000. Клонирование / Fantozzi 2000 - la clonazione (1999) DVDRip

182 | 12

1.23 ГБ

В этой теме нет новых непрочитанных сообщений. Фантоцци 2000 – Клонирование / Fantozzi 2000 – La clonazione (1999) DVDRip-AVC | P, A

29 | 4

3.78 ГБ




Вы не можете начинать темы
Вы не можете отвечать на сообщения
Вы не можете редактировать свои сообщения
Вы не можете удалять свои сообщения
Вы не можете добавлять вложения

Перейти:  
Для Мосгорсуда, Роскомнадзора и рекламодателей: mosgorsud-torrent[собачка]yandex.ru
 Вход
ppkBB3cker v.2 © 2008-2014 @ PPK
[ Time : 0.054s | 15 Queries | GZIP : Off ]

Торрент трекер RUTOR.IN, Не можете зайти на rutor.org? Какой новый адрес рутор? Какое зеркало рутор? Не работает rutor.org и зеркала? Тогда наш торрент специально для вас. Rutor.in неофициальное зеркало rutor. В случае если у Вас заблокирован rutor или вдруг Вы не можете на него зайти, то Вы без труда сможете скачать бесплатно и без рекламы последние новинки кино, игр, сериалов и прочего у нас, на Rutor.in. Не нужно использовать прокси, чтобы зайти на рутор, достаточно воспользоваться нашим ресурсом. Все новые фильмы, игры, сериалы, книги и музыка за 2013 и 2014 годы через торрент бесплатно. Скачивайте фильмы в хорошем качестве, игры для пк, xbox, playstation без регистрации. У нас вы найдете новые Зарубежные сериалы и Русские сериалы 2013, 2014, 2015 годов. Оставайтесь с нами, качайте любимые фильмы, игры, сериалы, книги и музыку.